  0
SECTION
  2
HEADER
  9
$ACADVER
  1
AC1014
  9
$ACADMAINTVER
 70
     0
  9
$DWGCODEPAGE
  3
ANSI_932
  9
$INSBASE
 10
0.0
 20
0.0
 30
0.0
  9
$EXTMIN
 10
-473.980063
 20
-271.990411
 30
0.0
  9
$EXTMAX
 10
2716.199534
 20
2100.803126
 30
0.0
  9
$LIMMIN
 10
0.0
 20
0.0
  9
$LIMMAX
 10
2000.0
 20
1000.0
  9
$ORTHOMODE
 70
     1
  9
$REGENMODE
 70
     1
  9
$FILLMODE
 70
     1
  9
$QTEXTMODE
 70
     0
  9
$MIRRTEXT
 70
     1
  9
$DRAGMODE
 70
     2
  9
$LTSCALE
 40
3.367003
  9
$OSMODE
 70
     0
  9
$ATTMODE
 70
     1
  9
$TEXTSIZE
 40
20.0
  9
$TRACEWID
 40
1.0
  9
$TEXTSTYLE
  7
STANDARD
  9
$CLAYER
  8
0
  9
$CELTYPE
  6
BYLAYER
  9
$CECOLOR
 62
   256
  9
$CELTSCALE
 40
1.0
  9
$DELOBJ
 70
     1
  9
$DISPSILH
 70
     0
  9
$DIMSCALE
 40
3.367003
  9
$DIMASZ
 40
2.5
  9
$DIMEXO
 40
0.625
  9
$DIMDLI
 40
3.75
  9
$DIMRND
 40
0.0
  9
$DIMDLE
 40
0.0
  9
$DIMEXE
 40
1.25
  9
$DIMTP
 40
0.0
  9
$DIMTM
 40
0.0
  9
$DIMTXT
 40
2.5
  9
$DIMCEN
 40
2.5
  9
$DIMTSZ
 40
0.0
  9
$DIMTOL
 70
     0
  9
$DIMLIM
 70
     0
  9
$DIMTIH
 70
     0
  9
$DIMTOH
 70
     0
  9
$DIMSE1
 70
     0
  9
$DIMSE2
 70
     0
  9
$DIMTAD
 70
     1
  9
$DIMZIN
 70
     8
  9
$DIMBLK
  1

  9
$DIMASO
 70
     1
  9
$DIMSHO
 70
     1
  9
$DIMPOST
  1

  9
$DIMAPOST
  1

  9
$DIMALT
 70
     0
  9
$DIMALTD
 70
     4
  9
$DIMALTF
 40
0.0394
  9
$DIMLFAC
 40
1.0
  9
$DIMTOFL
 70
     1
  9
$DIMTVP
 40
0.0
  9
$DIMTIX
 70
     0
  9
$DIMSOXD
 70
     0
  9
$DIMSAH
 70
     0
  9
$DIMBLK1
  1

  9
$DIMBLK2
  1

  9
$DIMSTYLE
  2
STANDARD_WS
  9
$DIMCLRD
 70
     0
  9
$DIMCLRE
 70
     0
  9
$DIMCLRT
 70
     0
  9
$DIMTFAC
 40
1.0
  9
$DIMGAP
 40
0.625
  9
$DIMJUST
 70
     0
  9
$DIMSD1
 70
     0
  9
$DIMSD2
 70
     0
  9
$DIMTOLJ
 70
     1
  9
$DIMTZIN
 70
     0
  9
$DIMALTZ
 70
     0
  9
$DIMALTTZ
 70
     0
  9
$DIMFIT
 70
     3
  9
$DIMUPT
 70
     0
  9
$DIMUNIT
 70
     2
  9
$DIMDEC
 70
     4
  9
$DIMTDEC
 70
     4
  9
$DIMALTU
 70
     8
  9
$DIMALTTD
 70
     4
  9
$DIMTXSTY
  7
STANDARD
  9
$DIMAUNIT
 70
     0
  9
$LUNITS
 70
     2
  9
$LUPREC
 70
     4
  9
$SKETCHINC
 40
1.0
  9
$FILLETRAD
 40
33.670034
  9
$AUNITS
 70
     0
  9
$AUPREC
 70
     0
  9
$MENU
  1
acad
  9
$ELEVATION
 40
0.0
  9
$PELEVATION
 40
0.0
  9
$THICKNESS
 40
0.0
  9
$LIMCHECK
 70
     0
  9
$BLIPMODE
 70
     0
  9
$CHAMFERA
 40
33.670034
  9
$CHAMFERB
 40
33.670034
  9
$CHAMFERC
 40
67.340067
  9
$CHAMFERD
 40
0.0
  9
$SKPOLY
 70
     0
  9
$TDCREATE
 40
2452618.701731597
  9
$TDUPDATE
 40
2453762.538296527
  9
$TDINDWG
 40
0.6755740741
  9
$TDUSRTIMER
 40
0.6755740741
  9
$USRTIMER
 70
     1
  9
$ANGBASE
 50
0.0
  9
$ANGDIR
 70
     0
  9
$PDMODE
 70
     0
  9
$PDSIZE
 40
0.0
  9
$PLINEWID
 40
0.0
  9
$COORDS
 70
     1
  9
$SPLFRAME
 70
     0
  9
$SPLINETYPE
 70
     6
  9
$SPLINESEGS
 70
     8
  9
$ATTDIA
 70
     0
  9
$ATTREQ
 70
     1
  9
$HANDLING
 70
     1
  9
$HANDSEED
  5
1308
  9
$SURFTAB1
 70
     6
  9
$SURFTAB2
 70
     6
  9
$SURFTYPE
 70
     6
  9
$SURFU
 70
     6
  9
$SURFV
 70
     6
  9
$UCSNAME
  2

  9
$UCSORG
 10
0.0
 20
0.0
 30
0.0
  9
$UCSXDIR
 10
1.0
 20
0.0
 30
0.0
  9
$UCSYDIR
 10
0.0
 20
1.0
 30
0.0
  9
$PUCSNAME
  2

  9
$PUCSORG
 10
0.0
 20
0.0
 30
0.0
  9
$PUCSXDIR
 10
1.0
 20
0.0
 30
0.0
  9
$PUCSYDIR
 10
0.0
 20
1.0
 30
0.0
  9
$USERI1
 70
     0
  9
$USERI2
 70
     0
  9
$USERI3
 70
     0
  9
$USERI4
 70
     0
  9
$USERI5
 70
     0
  9
$USERR1
 40
0.0
  9
$USERR2
 40
0.0
  9
$USERR3
 40
0.0
  9
$USERR4
 40
0.0
  9
$USERR5
 40
0.0
  9
$WORLDVIEW
 70
     1
  9
$SHADEDGE
 70
     3
  9
$SHADEDIF
 70
    70
  9
$TILEMODE
 70
     1
  9
$MAXACTVP
 70
    48
  9
$PINSBASE
 10
0.0
 20
0.0
 30
0.0
  9
$PLIMCHECK
 70
     0
  9
$PEXTMIN
 10
1.000000E+20
 20
1.000000E+20
 30
1.000000E+20
  9
$PEXTMAX
 10
-1.000000E+20
 20
-1.000000E+20
 30
-1.000000E+20
  9
$PLIMMIN
 10
0.0
 20
0.0
  9
$PLIMMAX
 10
420.0
 20
297.0
  9
$UNITMODE
 70
     0
  9
$VISRETAIN
 70
     1
  9
$PLINEGEN
 70
     0
  9
$PSLTSCALE
 70
     1
  9
$TREEDEPTH
 70
  3020
  9
$PICKSTYLE
 70
     1
  9
$CMLSTYLE
  2
STANDARD
  9
$CMLJUST
 70
     0
  9
$CMLSCALE
 40
20.0
  9
$PROXYGRAPHICS
 70
     1
  9
$MEASUREMENT
 70
     1
  0
ENDSEC
  0
SECTION
  2
CLASSES
  0
CLASS
  1
DICTIONARYVAR
  2
AcDbDictionaryVar
  3
"AutoCAD"
 90
        0
280
     0
281
     0
  0
CLASS
  1
LWPOLYLINE
  2
AcDbPolyline
  3
"AutoCAD"
 90
        0
280
     0
281
     1
  0
ENDSEC
  0
SECTION
  2
TABLES
  0
TABLE
  2
VPORT
  5
8
100
AcDbSymbolTable
 70
     1
  0
VPORT
  5
1302
100
AcDbSymbolTableRecord
100
AcDbViewportTableRecord
  2
*ACTIVE
 70
     0
 10
0.0
 20
0.0
 11
1.0
 21
1.0
 12
1689.051785
 22
-52.659959
 13
0.0
 23
0.0
 14
34.0
 24
34.0
 15
34.0
 25
34.0
 16
0.0
 26
0.0
 36
1.0
 17
0.0
 27
0.0
 37
0.0
 40
742.330408
 41
1.681818
 42
50.0
 43
0.0
 44
0.0
 50
0.0
 51
0.0
 71
     0
 72
   100
 73
     1
 74
     1
 75
     0
 76
     1
 77
     0
 78
     0
  0
ENDTAB
  0
TABLE
  2
LTYPE
  5
5
100
AcDbSymbolTable
 70
     4
  0
LTYPE
  5
12
100
AcDbSymbolTableRecord
100
AcDbLinetypeTableRecord
  2
BYBLOCK
 70
     0
  3

 72
    65
 73
     0
 40
0.0
  0
LTYPE
  5
13
100
AcDbSymbolTableRecord
100
AcDbLinetypeTableRecord
  2
BYLAYER
 70
     0
  3

 72
    65
 73
     0
 40
0.0
  0
LTYPE
  5
14
100
AcDbSymbolTableRecord
100
AcDbLinetypeTableRecord
  2
CONTINUOUS
 70
     0
  3
Solid line
 72
    65
 73
     0
 40
0.0
  0
LTYPE
  5
38
100
AcDbSymbolTableRecord
100
AcDbLinetypeTableRecord
  2
CENTER2
 70
     0
  3
Center (.5x) ___ _ ___ _ ___ _ ___ _ ___ _ ___
 72
    65
 73
     4
 40
28.575
 49
19.05
 74
     0
 49
-3.175
 74
     0
 49
3.175
 74
     0
 49
-3.175
 74
     0
  0
LTYPE
  5
39
100
AcDbSymbolTableRecord
100
AcDbLinetypeTableRecord
  2
DASHED2
 70
     0
  3
Dashed (.5x) _ _ _ _ _ _ _ _ _ _ _ _ _ _ _ _ _
 72
    65
 73
     2
 40
9.525
 49
6.35
 74
     0
 49
-3.175
 74
     0
  0
LTYPE
  5
3A
100
AcDbSymbolTableRecord
100
AcDbLinetypeTableRecord
  2
HIDDEN2
 70
     0
  3
Hidden (.5x) _ _ _ _ _ _ _ _ _ _ _ _ _ _ _ _ _
 72
    65
 73
     2
 40
4.7625
 49
3.175
 74
     0
 49
-1.5875
 74
     0
  0
ENDTAB
  0
TABLE
  2
LAYER
  5
2
100
AcDbSymbolTable
 70
     2
  0
LAYER
  5
E
100
AcDbSymbolTableRecord
100
AcDbLayerTableRecord
  2
0
 70
     0
 62
     7
  6
CONTINUOUS
  0
LAYER
  5
13E
100
AcDbSymbolTableRecord
100
AcDbLayerTableRecord
  2
DEFPOINTS
 70
     0
 62
     7
  6
CONTINUOUS
  0
ENDTAB
  0
TABLE
  2
STYLE
  5
3
100
AcDbSymbolTable
 70
     2
  0
STYLE
  5
F
100
AcDbSymbolTableRecord
100
AcDbTextStyleTableRecord
  2
STANDARD
 70
     0
 40
20.0
 41
1.0
 50
0.0
 71
     0
 42
20.0
  3
txt.shx
  4

  0
STYLE
  5
37
100
AcDbSymbolTableRecord
100
AcDbTextStyleTableRecord
  2

 70
     1
 40
0.0
 41
1.0
 50
0.0
 71
     0
 42
8.417508
  3
ltypeshp.shx
  4

  0
ENDTAB
  0
TABLE
  2
VIEW
  5
6
100
AcDbSymbolTable
 70
     0
  0
ENDTAB
  0
TABLE
  2
UCS
  5
7
100
AcDbSymbolTable
 70
     0
  0
ENDTAB
  0
TABLE
  2
APPID
  5
9
100
AcDbSymbolTable
 70
     3
  0
APPID
  5
10
100
AcDbSymbolTableRecord
100
AcDbRegAppTableRecord
  2
ACAD
 70
     0
  0
APPID
  5
24
100
AcDbSymbolTableRecord
100
AcDbRegAppTableRecord
  2
CONTENTTABDATA
 70
     0
  0
APPID
  5
25
100
AcDbSymbolTableRecord
100
AcDbRegAppTableRecord
  2
CONTENTCURRENTTAB
 70
     0
  0
ENDTAB
  0
TABLE
  2
DIMSTYLE
  5
A
100
AcDbSymbolTable
 70
     2
  0
DIMSTYLE
105
1D
100
AcDbSymbolTableRecord
100
AcDbDimStyleTableRecord
  2
STANDARD
 70
     0
  3

  4

  5

  6

  7

 40
1.0
 41
0.18
 42
0.0625
 43
0.38
 44
0.18
 45
0.0
 46
0.0
 47
0.0
 48
0.0
140
0.18
141
0.09
142
0.0
143
25.4
144
1.0
145
0.0
146
1.0
147
0.09
 71
     0
 72
     0
 73
     1
 74
     1
 75
     0
 76
     0
 77
     0
 78
     0
170
     0
171
     2
172
     0
173
     0
174
     0
175
     0
176
     0
177
     0
178
     0
270
     2
271
     4
272
     4
273
     2
274
     2
340
F
275
     0
280
     0
281
     0
282
     0
283
     1
284
     0
285
     0
286
     0
287
     3
288
     0
  0
DIMSTYLE
105
35
102
{ACAD_REACTORS
330
7E9
330
963
330
9E1
330
9EE
330
A23
330
A48
330
A55
330
A87
330
A99
330
CDC
330
CE9
330
CF5
330
D2A
330
D37
330
DC7
330
E64
330
E7D
330
ECD
330
F99
330
FA5
330
FB1
330
FBD
330
FC9
330
107B
330
1187
330
126A
330
12AF
102
}
100
AcDbSymbolTableRecord
100
AcDbDimStyleTableRecord
  2
STANDARD_WS
 70
     0
  3

  4

  5

  6

  7

 40
3.367003
 41
2.5
 42
0.625
 43
3.75
 44
1.25
 45
0.0
 46
0.0
 47
0.0
 48
0.0
140
2.5
141
2.5
142
0.0
143
0.0394
144
1.0
145
0.0
146
1.0
147
0.625
 71
     0
 72
     0
 73
     0
 74
     0
 75
     0
 76
     0
 77
     1
 78
     8
170
     0
171
     4
172
     1
173
     0
174
     0
175
     0
176
     0
177
     0
178
     0
270
     2
271
     4
272
     4
273
     8
274
     4
340
F
275
     0
280
     0
281
     0
282
     0
283
     1
284
     0
285
     0
286
     0
287
     3
288
     0
  0
ENDTAB
  0
TABLE
  2
BLOCK_RECORD
  5
1
100
AcDbSymbolTable
 70
    41
  0
BLOCK_RECORD
  5
18
100
AcDbSymbolTableRecord
100
AcDbBlockTableRecord
  2
*MODEL_SPACE
  0
BLOCK_RECORD
  5
15
100
AcDbSymbolTableRecord
100
AcDbBlockTableRecord
  2
*PAPER_SPACE
  0
BLOCK_RECORD
  5
114
100
AcDbSymbolTableRecord
100
AcDbBlockTableRecord
  2
A$C731C1FEF
  0
BLOCK_RECORD
  5
17A
100
AcDbSymbolTableRecord
100
AcDbBlockTableRecord
  2
A$C3D4A0DE5
  0
BLOCK_RECORD
  5
1AD
100
AcDbSymbolTableRecord
100
AcDbBlockTableRecord
  2
A$C061D45EC
  0
BLOCK_RECORD
  5
7DD
100
AcDbSymbolTableRecord
100
AcDbBlockTableRecord
  2
*D3
  0
BLOCK_RECORD
  5
957
100
AcDbSymbolTableRecord
100
AcDbBlockTableRecord
  2
*D4
  0
BLOCK_RECORD
  5
984
100
AcDbSymbolTableRecord
100
AcDbBlockTableRecord
  2
A$C4F2B35B1
  0
BLOCK_RECORD
  5
9CE
100
AcDbSymbolTableRecord
100
AcDbBlockTableRecord
  2
A$C560405F2
  0
BLOCK_RECORD
  5
9D5
100
AcDbSymbolTableRecord
100
AcDbBlockTableRecord
  2
*D7
  0
BLOCK_RECORD
  5
9E2
100
AcDbSymbolTableRecord
100
AcDbBlockTableRecord
  2
*D8
  0
BLOCK_RECORD
  5
A17
100
AcDbSymbolTableRecord
100
AcDbBlockTableRecord
  2
*D9
  0
BLOCK_RECORD
  5
A3C
100
AcDbSymbolTableRecord
100
AcDbBlockTableRecord
  2
*D10
  0
BLOCK_RECORD
  5
A49
100
AcDbSymbolTableRecord
100
AcDbBlockTableRecord
  2
*D11
  0
BLOCK_RECORD
  5
A7B
100
AcDbSymbolTableRecord
100
AcDbBlockTableRecord
  2
*D12
  0
BLOCK_RECORD
  5
A8D
100
AcDbSymbolTableRecord
100
AcDbBlockTableRecord
  2
*D13
  0
BLOCK_RECORD
  5
CD0
100
AcDbSymbolTableRecord
100
AcDbBlockTableRecord
  2
*D14
  0
BLOCK_RECORD
  5
CDD
100
AcDbSymbolTableRecord
100
AcDbBlockTableRecord
  2
*D15
  0
BLOCK_RECORD
  5
CEA
100
AcDbSymbolTableRecord
100
AcDbBlockTableRecord
  2
*D16
  0
BLOCK_RECORD
  5
D1E
100
AcDbSymbolTableRecord
100
AcDbBlockTableRecord
  2
*D17
  0
BLOCK_RECORD
  5
D2B
100
AcDbSymbolTableRecord
100
AcDbBlockTableRecord
  2
*D18
  0
BLOCK_RECORD
  5
DBB
100
AcDbSymbolTableRecord
100
AcDbBlockTableRecord
  2
*D19
  0
BLOCK_RECORD
  5
E32
100
AcDbSymbolTableRecord
100
AcDbBlockTableRecord
  2
A$C7BAC38FA
  0
BLOCK_RECORD
  5
E58
100
AcDbSymbolTableRecord
100
AcDbBlockTableRecord
  2
*D21
  0
BLOCK_RECORD
  5
E70
100
AcDbSymbolTableRecord
100
AcDbBlockTableRecord
  2
*D22
  0
BLOCK_RECORD
  5
F1F
100
AcDbSymbolTableRecord
100
AcDbBlockTableRecord
  2
*D23
  0
BLOCK_RECORD
  5
F8D
100
AcDbSymbolTableRecord
100
AcDbBlockTableRecord
  2
*D24
  0
BLOCK_RECORD
  5
F9A
100
AcDbSymbolTableRecord
100
AcDbBlockTableRecord
  2
*D25
  0
BLOCK_RECORD
  5
FA6
100
AcDbSymbolTableRecord
100
AcDbBlockTableRecord
  2
*D26
  0
BLOCK_RECORD
  5
FB2
100
AcDbSymbolTableRecord
100
AcDbBlockTableRecord
  2
*D27
  0
BLOCK_RECORD
  5
FBE
100
AcDbSymbolTableRecord
100
AcDbBlockTableRecord
  2
*D28
  0
BLOCK_RECORD
  5
106F
100
AcDbSymbolTableRecord
100
AcDbBlockTableRecord
  2
*D29
  0
BLOCK_RECORD
  5
1197
100
AcDbSymbolTableRecord
100
AcDbBlockTableRecord
  2
*D30
  0
BLOCK_RECORD
  5
11C0
100
AcDbSymbolTableRecord
100
AcDbBlockTableRecord
  2
A$C12281314
  0
BLOCK_RECORD
  5
11C9
100
AcDbSymbolTableRecord
100
AcDbBlockTableRecord
  2
A$C4DB77D8D
  0
BLOCK_RECORD
  5
11D7
100
AcDbSymbolTableRecord
100
AcDbBlockTableRecord
  2
A$C46FA3754
  0
BLOCK_RECORD
  5
11E3
100
AcDbSymbolTableRecord
100
AcDbBlockTableRecord
  2
A$C3A0E4978
  0
BLOCK_RECORD
  5
11FE
100
AcDbSymbolTableRecord
100
AcDbBlockTableRecord
  2
A$C5BA30E5C
  0
BLOCK_RECORD
  5
125E
100
AcDbSymbolTableRecord
100
AcDbBlockTableRecord
  2
*D36
  0
BLOCK_RECORD
  5
128D
100
AcDbSymbolTableRecord
100
AcDbBlockTableRecord
  2
A$C7B362385
  0
BLOCK_RECORD
  5
12A3
100
AcDbSymbolTableRecord
100
AcDbBlockTableRecord
  2
*D38
  0
BLOCK_RECORD
  5
12CE
100
AcDbSymbolTableRecord
100
AcDbBlockTableRecord
  2
A$C2BBA61E4
  0
BLOCK_RECORD
  5
12DF
100
AcDbSymbolTableRecord
100
AcDbBlockTableRecord
  2
A$C431E75CC
  0
ENDTAB
  0
ENDSEC
  0
SECTION
  2
BLOCKS
  0
BLOCK
  5
19
100
AcDbEntity
  8
0
100
AcDbBlockBegin
  2
*MODEL_SPACE
 70
     0
 10
0.0
 20
0.0
 30
0.0
  3
*MODEL_SPACE
  1

  0
ENDBLK
  5
1A
100
AcDbEntity
  8
0
100
AcDbBlockEnd
  0
BLOCK
  5
16
100
AcDbEntity
 67
     1
  8
0
100
AcDbBlockBegin
  2
*PAPER_SPACE
 70
     0
 10
0.0
 20
0.0
 30
0.0
  3
*PAPER_SPACE
  1

  0
ENDBLK
  5
17
100
AcDbEntity
 67
     1
  8
0
100
AcDbBlockEnd
  0
BLOCK
  5
132
100
AcDbEntity
  8
0
100
AcDbBlockBegin
  2
A$C731C1FEF
 70
     0
 10
0.0
 20
0.0
 30
0.0
  3
A$C731C1FEF
  1

  0
LINE
  5
115
100
AcDbEntity
  8
0
100
AcDbLine
 10
0.0
 20
66.0
 30
0.0
 11
52.5
 21
66.0
 31
0.0
  0
LINE
  5
116
100
AcDbEntity
  8
0
100
AcDbLine
 10
0.0
 20
62.0
 30
0.0
 11
52.5
 21
62.0
 31
0.0
  0
LINE
  5
117
100
AcDbEntity
  8
0
100
AcDbLine
 10
0.0
 20
66.0
 30
0.0
 11
0.0
 21
62.0
 31
0.0
  0
LINE
  5
118
100
AcDbEntity
  8
0
100
AcDbLine
 10
90.0
 20
48.0
 30
0.0
 11
90.0
 21
0.0
 31
0.0
  0
LINE
  5
119
100
AcDbEntity
  8
0
100
AcDbLine
 10
115.5
 20
48.0
 30
0.0
 11
115.5
 21
0.0
 31
0.0
  0
LINE
  5
11A
100
AcDbEntity
  8
0
100
AcDbLine
 10
64.5
 20
48.0
 30
0.0
 11
64.5
 21
0.0
 31
0.0
  0
LINE
  5
11B
100
AcDbEntity
  8
0
100
AcDbLine
 10
52.5
 20
48.0
 30
0.0
 11
52.5
 21
0.0
 31
0.0
  0
LINE
  5
11C
100
AcDbEntity
  8
0
100
AcDbLine
 10
127.5
 20
48.0
 30
0.0
 11
127.5
 21
0.0
 31
0.0
  0
LINE
  5
11D
100
AcDbEntity
  8
0
100
AcDbLine
 10
64.5
 20
2.0
 30
0.0
 11
90.0
 21
0.0
 31
0.0
  0
LINE
  5
11E
100
AcDbEntity
  8
0
100
AcDbLine
 10
52.5
 20
0.0
 30
0.0
 11
64.5
 21
0.0
 31
0.0
  0
LINE
  5
11F
100
AcDbEntity
  8
0
100
AcDbLine
 10
52.5
 20
12.0
 30
0.0
 11
64.5
 21
12.0
 31
0.0
  0
LINE
  5
120
100
AcDbEntity
  8
0
100
AcDbLine
 10
85.0
 20
0.392157
 30
0.0
 11
85.0
 21
0.0
 31
0.0
  0
LINE
  5
121
100
AcDbEntity
  8
0
100
AcDbLine
 10
90.0
 20
0.0
 30
0.0
 11
115.5
 21
2.0
 31
0.0
  0
LINE
  5
122
100
AcDbEntity
  8
0
100
AcDbLine
 10
95.0
 20
0.392157
 30
0.0
 11
95.0
 21
0.0
 31
0.0
  0
LINE
  5
123
100
AcDbEntity
  8
0
100
AcDbLine
 10
115.5
 20
0.0
 30
0.0
 11
127.5
 21
0.0
 31
0.0
  0
LINE
  5
124
100
AcDbEntity
  8
0
100
AcDbLine
 10
115.5
 20
12.0
 30
0.0
 11
127.5
 21
12.0
 31
0.0
  0
LINE
  5
125
100
AcDbEntity
  8
0
100
AcDbLine
 10
95.0
 20
62.0
 30
0.0
 11
95.0
 21
47.607843
 31
0.0
  0
LINE
  5
126
100
AcDbEntity
  8
0
100
AcDbLine
 10
85.0
 20
62.0
 30
0.0
 11
85.0
 21
47.607843
 31
0.0
  0
LINE
  5
127
100
AcDbEntity
  8
0
100
AcDbLine
 10
64.5
 20
46.0
 30
0.0
 11
90.0
 21
48.0
 31
0.0
  0
LINE
  5
128
100
AcDbEntity
  8
0
100
AcDbLine
 10
52.5
 20
36.0
 30
0.0
 11
64.5
 21
36.0
 31
0.0
  0
LINE
  5
129
100
AcDbEntity
  8
0
100
AcDbLine
 10
52.5
 20
48.0
 30
0.0
 11
64.5
 21
48.0
 31
0.0
  0
LINE
  5
12A
100
AcDbEntity
  8
0
100
AcDbLine
 10
90.0
 20
48.0
 30
0.0
 11
115.5
 21
46.0
 31
0.0
  0
LINE
  5
12B
100
AcDbEntity
  8
0
100
AcDbLine
 10
115.5
 20
36.0
 30
0.0
 11
127.5
 21
36.0
 31
0.0
  0
LINE
  5
12C
100
AcDbEntity
  8
0
100
AcDbLine
 10
115.5
 20
48.0
 30
0.0
 11
127.5
 21
48.0
 31
0.0
  0
LINE
  5
12D
100
AcDbEntity
  8
0
100
AcDbLine
 10
64.5
 20
62.0
 30
0.0
 11
95.0
 21
62.0
 31
0.0
  0
LINE
  5
12E
100
AcDbEntity
  8
0
100
AcDbLine
 10
64.5
 20
58.0
 30
0.0
 11
95.0
 21
58.0
 31
0.0
  0
LINE
  5
12F
100
AcDbEntity
  8
0
100
AcDbLine
 10
52.5
 20
66.0
 30
0.0
 11
64.5
 21
62.0
 31
0.0
  0
LINE
  5
130
100
AcDbEntity
  8
0
100
AcDbLine
 10
52.5
 20
62.0
 30
0.0
 11
64.5
 21
58.0
 31
0.0
  0
LINE
  5
131
100
AcDbEntity
  8
0
100
AcDbLine
 10
90.0
 20
62.0
 30
0.0
 11
90.0
 21
58.0
 31
0.0
  0
ENDBLK
  5
133
100
AcDbEntity
  8
0
100
AcDbBlockEnd
  0
BLOCK
  5
198
100
AcDbEntity
  8
0
100
AcDbBlockBegin
  2
A$C3D4A0DE5
 70
     0
 10
0.0
 20
0.0
 30
0.0
  3
A$C3D4A0DE5
  1

  0
LINE
  5
17B
100
AcDbEntity
  8
0
  6
HIDDEN2
100
AcDbLine
 10
0.0
 20
66.0
 30
0.0
 11
52.5
 21
66.0
 31
0.0
  0
LINE
  5
17C
100
AcDbEntity
  8
0
  6
HIDDEN2
100
AcDbLine
 10
0.0
 20
62.0
 30
0.0
 11
52.5
 21
62.0
 31
0.0
  0
LINE
  5
17D
100
AcDbEntity
  8
0
  6
HIDDEN2
100
AcDbLine
 10
0.0
 20
66.0
 30
0.0
 11
0.0
 21
62.0
 31
0.0
  0
LINE
  5
17E
100
AcDbEntity
  8
0
  6
HIDDEN2
100
AcDbLine
 10
90.0
 20
48.0
 30
0.0
 11
90.0
 21
0.0
 31
0.0
  0
LINE
  5
17F
100
AcDbEntity
  8
0
  6
HIDDEN2
100
AcDbLine
 10
115.5
 20
48.0
 30
0.0
 11
115.5
 21
0.0
 31
0.0
  0
LINE
  5
180
100
AcDbEntity
  8
0
  6
HIDDEN2
100
AcDbLine
 10
64.5
 20
48.0
 30
0.0
 11
64.5
 21
0.0
 31
0.0
  0
LINE
  5
181
100
AcDbEntity
  8
0
  6
HIDDEN2
100
AcDbLine
 10
52.5
 20
48.0
 30
0.0
 11
52.5
 21
0.0
 31
0.0
  0
LINE
  5
182
100
AcDbEntity
  8
0
  6
HIDDEN2
100
AcDbLine
 10
127.5
 20
48.0
 30
0.0
 11
127.5
 21
0.0
 31
0.0
  0
LINE
  5
183
100
AcDbEntity
  8
0
  6
HIDDEN2
100
AcDbLine
 10
64.5
 20
2.0
 30
0.0
 11
90.0
 21
0.0
 31
0.0
  0
LINE
  5
184
100
AcDbEntity
  8
0
  6
HIDDEN2
100
AcDbLine
 10
52.5
 20
0.0
 30
0.0
 11
64.5
 21
0.0
 31
0.0
  0
LINE
  5
185
100
AcDbEntity
  8
0
  6
HIDDEN2
100
AcDbLine
 10
52.5
 20
12.0
 30
0.0
 11
64.5
 21
12.0
 31
0.0
  0
LINE
  5
186
100
AcDbEntity
  8
0
  6
HIDDEN2
100
AcDbLine
 10
85.0
 20
0.392157
 30
0.0
 11
85.0
 21
0.0
 31
0.0
  0
LINE
  5
187
100
AcDbEntity
  8
0
  6
HIDDEN2
100
AcDbLine
 10
90.0
 20
0.0
 30
0.0
 11
115.5
 21
2.0
 31
0.0
  0
LINE
  5
188
100
AcDbEntity
  8
0
  6
HIDDEN2
100
AcDbLine
 10
95.0
 20
0.392157
 30
0.0
 11
95.0
 21
0.0
 31
0.0
  0
LINE
  5
189
100
AcDbEntity
  8
0
  6
HIDDEN2
100
AcDbLine
 10
115.5
 20
0.0
 30
0.0
 11
127.5
 21
0.0
 31
0.0
  0
LINE
  5
18A
100
AcDbEntity
  8
0
  6
HIDDEN2
100
AcDbLine
 10
115.5
 20
12.0
 30
0.0
 11
127.5
 21
12.0
 31
0.0
  0
LINE
  5
18B
100
AcDbEntity
  8
0
  6
HIDDEN2
100
AcDbLine
 10
95.0
 20
62.0
 30
0.0
 11
95.0
 21
47.607843
 31
0.0
  0
LINE
  5
18C
100
AcDbEntity
  8
0
  6
HIDDEN2
100
AcDbLine
 10
85.0
 20
62.0
 30
0.0
 11
85.0
 21
47.607843
 31
0.0
  0
LINE
  5
18D
100
AcDbEntity
  8
0
  6
HIDDEN2
100
AcDbLine
 10
64.5
 20
46.0
 30
0.0
 11
90.0
 21
48.0
 31
0.0
  0
LINE
  5
18E
100
AcDbEntity
  8
0
  6
HIDDEN2
100
AcDbLine
 10
52.5
 20
36.0
 30
0.0
 11
64.5
 21
36.0
 31
0.0
  0
LINE
  5
18F
100
AcDbEntity
  8
0
  6
HIDDEN2
100
AcDbLine
 10
52.5
 20
48.0
 30
0.0
 11
64.5
 21
48.0
 31
0.0
  0
LINE
  5
190
100
AcDbEntity
  8
0
  6
HIDDEN2
100
AcDbLine
 10
90.0
 20
48.0
 30
0.0
 11
115.5
 21
46.0
 31
0.0
  0
LINE
  5
191
100
AcDbEntity
  8
0
  6
HIDDEN2
100
AcDbLine
 10
115.5
 20
36.0
 30
0.0
 11
127.5
 21
36.0
 31
0.0
  0
LINE
  5
192
100
AcDbEntity
  8
0
  6
HIDDEN2
100
AcDbLine
 10
115.5
 20
48.0
 30
0.0
 11
127.5
 21
48.0
 31
0.0
  0
LINE
  5
193
100
AcDbEntity
  8
0
  6
HIDDEN2
100
AcDbLine
 10
64.5
 20
62.0
 30
0.0
 11
95.0
 21
62.0
 31
0.0
  0
LINE
  5
194
100
AcDbEntity
  8
0
  6
HIDDEN2
100
AcDbLine
 10
64.5
 20
58.0
 30
0.0
 11
95.0
 21
58.0
 31
0.0
  0
LINE
  5
195
100
AcDbEntity
  8
0
  6
HIDDEN2
100
AcDbLine
 10
52.5
 20
66.0
 30
0.0
 11
64.5
 21
62.0
 31
0.0
  0
LINE
  5
196
100
AcDbEntity
  8
0
  6
HIDDEN2
100
AcDbLine
 10
52.5
 20
62.0
 30
0.0
 11
64.5
 21
58.0
 31
0.0
  0
LINE
  5
197
100
AcDbEntity
  8
0
  6
HIDDEN2
100
AcDbLine
 10
90.0
 20
62.0
 30
0.0
 11
90.0
 21
58.0
 31
0.0
  0
ENDBLK
  5
199
100
AcDbEntity
  8
0
100
AcDbBlockEnd
  0
BLOCK
  5
1B8
100
AcDbEntity
  8
0
100
AcDbBlockBegin
  2
A$C061D45EC
 70
     0
 10
0.0
 20
0.0
 30
0.0
  3
A$C061D45EC
  1

  0
LINE
  5
1AE
100
AcDbEntity
  8
0
100
AcDbLine
 10
0.0
 20
18.392157
 30
0.0
 11
52.5
 21
18.392157
 31
0.0
  0
LINE
  5
1AF
100
AcDbEntity
  8
0
100
AcDbLine
 10
0.0
 20
14.392157
 30
0.0
 11
52.5
 21
14.392157
 31
0.0
  0
LINE
  5
1B0
100
AcDbEntity
  8
0
100
AcDbLine
 10
0.0
 20
18.392157
 30
0.0
 11
0.0
 21
14.392157
 31
0.0
  0
LINE
  5
1B1
100
AcDbEntity
  8
0
100
AcDbLine
 10
64.5
 20
14.392157
 30
0.0
 11
95.0
 21
14.392157
 31
0.0
  0
LINE
  5
1B2
100
AcDbEntity
  8
0
100
AcDbLine
 10
64.5
 20
10.392157
 30
0.0
 11
95.0
 21
10.392157
 31
0.0
  0
LINE
  5
1B3
100
AcDbEntity
  8
0
100
AcDbLine
 10
52.5
 20
18.392157
 30
0.0
 11
64.5
 21
14.392157
 31
0.0
  0
LINE
  5
1B4
100
AcDbEntity
  8
0
100
AcDbLine
 10
52.5
 20
14.392157
 30
0.0
 11
64.5
 21
10.392157
 31
0.0
  0
LINE
  5
1B5
100
AcDbEntity
  8
0
100
AcDbLine
 10
90.0
 20
14.392157
 30
0.0
 11
90.0
 21
10.392157
 31
0.0
  0
LINE
  5
1B6
100
AcDbEntity
  8
0
100
AcDbLine
 10
85.0
 20
14.392157
 30
0.0
 11
85.0
 21
0.0
 31
0.0
  0
LINE
  5
1B7
100
AcDbEntity
  8
0
100
AcDbLine
 10
95.0
 20
14.392157
 30
0.0
 11
95.0
 21
0.0
 31
0.0
  0
ENDBLK
  5
1B9
100
AcDbEntity
  8
0
100
AcDbBlockEnd
  0
BLOCK
  5
C1E
100
AcDbEntity
  8
0
100
AcDbBlockBegin
  2
*D3
 70
     1
 10
0.0
 20
0.0
 30
0.0
  3
*D3
  1

  0
LINE
  5
C1F
100
AcDbEntity
  8
0
  6
BYBLOCK
 62
     0
100
AcDbLine
 10
704.256135
 20
942.87257
 30
0.0
 11
886.033754
 21
942.87257
 31
0.0
  0
LINE
  5
C20
100
AcDbEntity
  8
0
  6
BYBLOCK
 62
     0
100
AcDbLine
 10
805.860945
 20
42.87257
 30
0.0
 11
886.033754
 21
42.87257
 31
0.0
  0
LINE
  5
C21
100
AcDbEntity
  8
0
  6
BYBLOCK
 62
     0
100
AcDbLine
 10
881.824999
 20
934.455062
 30
0.0
 11
881.824999
 21
51.290079
 31
0.0
  0
SOLID
  5
C22
100
AcDbEntity
  8
0
  6
BYBLOCK
 62
     0
100
AcDbTrace
 10
880.422081
 20
934.455062
 30
0.0
 11
883.227918
 21
934.455062
 31
0.0
 12
881.824999
 22
942.87257
 32
0.0
 13
881.824999
 23
942.87257
 33
0.0
  0
SOLID
  5
C23
100
AcDbEntity
  8
0
  6
BYBLOCK
 62
     0
100
AcDbTrace
 10
880.422081
 20
51.290079
 30
0.0
 11
883.227918
 21
51.290079
 31
0.0
 12
881.824999
 22
42.87257
 32
0.0
 13
881.824999
 23
42.87257
 33
0.0
  0
MTEXT
  5
C24
100
AcDbEntity
  8
0
  6
BYBLOCK
 62
     0
100
AcDbMText
 10
869.720622
 20
492.87257
 30
0.0
 40
20.0
 41
0.0
 71
     5
 72
     1
  1
\A1;900
 11
0.0
 21
1.0
 31
0.0
  0
POINT
  5
C25
100
AcDbEntity
  8
DEFPOINTS
  6
BYBLOCK
 62
     0
100
AcDbPoint
 10
702.151758
 20
942.87257
 30
0.0
  0
POINT
  5
C26
100
AcDbEntity
  8
DEFPOINTS
  6
BYBLOCK
 62
     0
100
AcDbPoint
 10
803.756568
 20
42.87257
 30
0.0
  0
POINT
  5
C27
100
AcDbEntity
  8
DEFPOINTS
  6
BYBLOCK
 62
     0
100
AcDbPoint
 10
881.824999
 20
42.87257
 30
0.0
  0
ENDBLK
  5
C28
100
AcDbEntity
  8
0
100
AcDbBlockEnd
  0
BLOCK
  5
F82
100
AcDbEntity
  8
0
100
AcDbBlockBegin
  2
*D4
 70
     1
 10
0.0
 20
0.0
 30
0.0
  3
*D4
  1

  0
LINE
  5
F83
100
AcDbEntity
  8
0
  6
BYBLOCK
 62
     0
100
AcDbLine
 10
974.146714
 20
1842.293319
 30
0.0
 11
1091.950874
 21
1842.293319
 31
0.0
  0
LINE
  5
F84
100
AcDbEntity
  8
0
  6
BYBLOCK
 62
     0
100
AcDbLine
 10
986.33428
 20
1252.293319
 30
0.0
 11
1091.950874
 21
1252.293319
 31
0.0
  0
LINE
  5
F85
100
AcDbEntity
  8
0
  6
BYBLOCK
 62
     0
100
AcDbLine
 10
1087.74212
 20
1833.875811
 30
0.0
 11
1087.74212
 21
1260.710827
 31
0.0
  0
SOLID
  5
F86
100
AcDbEntity
  8
0
  6
BYBLOCK
 62
     0
100
AcDbTrace
 10
1086.339202
 20
1833.875811
 30
0.0
 11
1089.145038
 21
1833.875811
 31
0.0
 12
1087.74212
 22
1842.293319
 32
0.0
 13
1087.74212
 23
1842.293319
 33
0.0
  0
SOLID
  5
F87
100
AcDbEntity
  8
0
  6
BYBLOCK
 62
     0
100
AcDbTrace
 10
1086.339202
 20
1260.710827
 30
0.0
 11
1089.145038
 21
1260.710827
 31
0.0
 12
1087.74212
 22
1252.293319
 32
0.0
 13
1087.74212
 23
1252.293319
 33
0.0
  0
MTEXT
  5
F88
100
AcDbEntity
  8
0
  6
BYBLOCK
 62
     0
100
AcDbMText
 10
1075.637743
 20
1630.961067
 30
0.0
 40
20.0
 41
0.0
 71
     5
 72
     1
  1
\A1;590
 11
0.0
 21
1.0
 31
0.0
  0
POINT
  5
F89
100
AcDbEntity
  8
DEFPOINTS
  6
BYBLOCK
 62
     0
100
AcDbPoint
 10
972.042337
 20
1842.293319
 30
0.0
  0
POINT
  5
F8A
100
AcDbEntity
  8
DEFPOINTS
  6
BYBLOCK
 62
     0
100
AcDbPoint
 10
984.229903
 20
1252.293319
 30
0.0
  0
POINT
  5
F8B
100
AcDbEntity
  8
DEFPOINTS
  6
BYBLOCK
 62
     0
100
AcDbPoint
 10
1087.74212
 20
1252.293319
 30
0.0
  0
ENDBLK
  5
F8C
100
AcDbEntity
  8
0
100
AcDbBlockEnd
  0
BLOCK
  5
986
100
AcDbEntity
  8
0
100
AcDbBlockBegin
  2
A$C4F2B35B1
 70
     0
 10
0.0
 20
0.0
 30
0.0
  3
A$C4F2B35B1
  1

  0
LWPOLYLINE
  5
985
100
AcDbEntity
  8
0
100
AcDbPolyline
 90
        4
 70
     1
 43
0.0
 10
0.0
 20
115.721462
 10
3.40623
 20
115.721462
 10
3.40623
 20
0.0
 10
0.0
 20
0.0
  0
ENDBLK
  5
987
100
AcDbEntity
  8
0
100
AcDbBlockEnd
  0
BLOCK
  5
9D2
100
AcDbEntity
  8
0
100
AcDbBlockBegin
  2
A$C560405F2
 70
     0
 10
0.0
 20
0.0
 30
0.0
  3
A$C560405F2
  1

  0
INSERT
  5
9CF
100
AcDbEntity
  8
0
100
AcDbBlockReference
  2
A$C061D45EC
 10
0.000005
 20
49.747753
 30
0.0
  0
CIRCLE
  5
9D0
100
AcDbEntity
  8
0
100
AcDbCircle
 10
89.810756
 20
24.999998
 30
0.0
 40
25.0
  0
CIRCLE
  5
9D1
100
AcDbEntity
  8
0
100
AcDbCircle
 10
89.810756
 20
24.999998
 30
0.0
 40
21.0
  0
ENDBLK
  5
9D3
100
AcDbEntity
  8
0
100
AcDbBlockEnd
  0
BLOCK
  5
E09
100
AcDbEntity
  8
0
100
AcDbBlockBegin
  2
*D7
 70
     1
 10
0.0
 20
0.0
 30
0.0
  3
*D7
  1

  0
LINE
  5
E0A
100
AcDbEntity
  8
0
  6
BYBLOCK
 62
     0
100
AcDbLine
 10
705.242356
 20
842.87257
 30
0.0
 11
805.603634
 21
842.87257
 31
0.0
  0
LINE
  5
E0B
100
AcDbEntity
  8
0
  6
BYBLOCK
 62
     0
100
AcDbLine
 10
702.784666
 20
42.87257
 30
0.0
 11
805.603634
 21
42.87257
 31
0.0
  0
LINE
  5
E0C
100
AcDbEntity
  8
0
  6
BYBLOCK
 62
     0
100
AcDbLine
 10
801.39488
 20
834.455062
 30
0.0
 11
801.39488
 21
51.290079
 31
0.0
  0
SOLID
  5
E0D
100
AcDbEntity
  8
0
  6
BYBLOCK
 62
     0
100
AcDbTrace
 10
799.991962
 20
834.455062
 30
0.0
 11
802.797798
 21
834.455062
 31
0.0
 12
801.39488
 22
842.87257
 32
0.0
 13
801.39488
 23
842.87257
 33
0.0
  0
SOLID
  5
E0E
100
AcDbEntity
  8
0
  6
BYBLOCK
 62
     0
100
AcDbTrace
 10
799.991962
 20
51.290079
 30
0.0
 11
802.797798
 21
51.290079
 31
0.0
 12
801.39488
 22
42.87257
 32
0.0
 13
801.39488
 23
42.87257
 33
0.0
  0
MTEXT
  5
E0F
100
AcDbEntity
  8
0
  6
BYBLOCK
 62
     0
100
AcDbMText
 10
789.290503
 20
590.285126
 30
0.0
 40
20.0
 41
0.0
 71
     5
 72
     1
  1
\A1;800
 11
0.0
 21
1.0
 31
0.0
  0
POINT
  5
E10
100
AcDbEntity
  8
DEFPOINTS
  6
BYBLOCK
 62
     0
100
AcDbPoint
 10
703.137979
 20
842.87257
 30
0.0
  0
POINT
  5
E11
100
AcDbEntity
  8
DEFPOINTS
  6
BYBLOCK
 62
     0
100
AcDbPoint
 10
700.680289
 20
42.87257
 30
0.0
  0
POINT
  5
E12
100
AcDbEntity
  8
DEFPOINTS
  6
BYBLOCK
 62
     0
100
AcDbPoint
 10
801.39488
 20
42.87257
 30
0.0
  0
ENDBLK
  5
E13
100
AcDbEntity
  8
0
100
AcDbBlockEnd
  0
BLOCK
  5
BFD
100
AcDbEntity
  8
0
100
AcDbBlockBegin
  2
*D8
 70
     1
 10
0.0
 20
0.0
 30
0.0
  3
*D8
  1

  0
LINE
  5
BFE
100
AcDbEntity
  8
0
  6
BYBLOCK
 62
     0
100
AcDbLine
 10
705.242356
 20
842.87257
 30
0.0
 11
805.001705
 21
842.87257
 31
0.0
  0
LINE
  5
BFF
100
AcDbEntity
  8
0
  6
BYBLOCK
 62
     0
100
AcDbLine
 10
707.653351
 20
942.87257
 30
0.0
 11
805.001705
 21
942.87257
 31
0.0
  0
LINE
  5
C00
100
AcDbEntity
  8
0
  6
BYBLOCK
 62
     0
100
AcDbLine
 10
800.792951
 20
851.290079
 30
0.0
 11
800.792951
 21
934.455062
 31
0.0
  0
SOLID
  5
C01
100
AcDbEntity
  8
0
  6
BYBLOCK
 62
     0
100
AcDbTrace
 10
799.390032
 20
851.290079
 30
0.0
 11
802.195869
 21
851.290079
 31
0.0
 12
800.792951
 22
842.87257
 32
0.0
 13
800.792951
 23
842.87257
 33
0.0
  0
SOLID
  5
C02
100
AcDbEntity
  8
0
  6
BYBLOCK
 62
     0
100
AcDbTrace
 10
799.390032
 20
934.455062
 30
0.0
 11
802.195869
 21
934.455062
 31
0.0
 12
800.792951
 22
942.87257
 32
0.0
 13
800.792951
 23
942.87257
 33
0.0
  0
MTEXT
  5
C03
100
AcDbEntity
  8
0
  6
BYBLOCK
 62
     0
100
AcDbMText
 10
788.688573
 20
892.87257
 30
0.0
 40
20.0
 41
0.0
 71
     5
 72
     1
  1
\A1;100
 11
0.0
 21
1.0
 31
0.0
  0
POINT
  5
C04
100
AcDbEntity
  8
DEFPOINTS
  6
BYBLOCK
 62
     0
100
AcDbPoint
 10
703.137979
 20
842.87257
 30
0.0
  0
POINT
  5
C05
100
AcDbEntity
  8
DEFPOINTS
  6
BYBLOCK
 62
     0
100
AcDbPoint
 10
705.548974
 20
942.87257
 30
0.0
  0
POINT
  5
C06
100
AcDbEntity
  8
DEFPOINTS
  6
BYBLOCK
 62
     0
100
AcDbPoint
 10
800.792951
 20
942.87257
 30
0.0
  0
ENDBLK
  5
C07
100
AcDbEntity
  8
0
100
AcDbBlockEnd
  0
BLOCK
  5
B79
100
AcDbEntity
  8
0
100
AcDbBlockBegin
  2
*D9
 70
     1
 10
0.0
 20
0.0
 30
0.0
  3
*D9
  1

  0
LINE
  5
B7A
100
AcDbEntity
  8
0
  6
BYBLOCK
 62
     0
100
AcDbLine
 10
700.543279
 20
1842.293319
 30
0.0
 11
764.662582
 21
1842.293319
 31
0.0
  0
LINE
  5
B7B
100
AcDbEntity
  8
0
  6
BYBLOCK
 62
     0
100
AcDbLine
 10
697.996874
 20
1752.293319
 30
0.0
 11
764.662582
 21
1752.293319
 31
0.0
  0
LINE
  5
B7C
100
AcDbEntity
  8
0
  6
BYBLOCK
 62
     0
100
AcDbLine
 10
760.453828
 20
1833.875811
 30
0.0
 11
760.453828
 21
1760.710827
 31
0.0
  0
SOLID
  5
B7D
100
AcDbEntity
  8
0
  6
BYBLOCK
 62
     0
100
AcDbTrace
 10
759.05091
 20
1833.875811
 30
0.0
 11
761.856746
 21
1833.875811
 31
0.0
 12
760.453828
 22
1842.293319
 32
0.0
 13
760.453828
 23
1842.293319
 33
0.0
  0
SOLID
  5
B7E
100
AcDbEntity
  8
0
  6
BYBLOCK
 62
     0
100
AcDbTrace
 10
759.05091
 20
1760.710827
 30
0.0
 11
761.856746
 21
1760.710827
 31
0.0
 12
760.453828
 22
1752.293319
 32
0.0
 13
760.453828
 23
1752.293319
 33
0.0
  0
MTEXT
  5
B7F
100
AcDbEntity
  8
0
  6
BYBLOCK
 62
     0
100
AcDbMText
 10
748.349451
 20
1797.293319
 30
0.0
 40
20.0
 41
0.0
 71
     5
 72
     1
  1
\A1;90
 11
0.0
 21
1.0
 31
0.0
  0
POINT
  5
B80
100
AcDbEntity
  8
DEFPOINTS
  6
BYBLOCK
 62
     0
100
AcDbPoint
 10
698.438902
 20
1842.293319
 30
0.0
  0
POINT
  5
B81
100
AcDbEntity
  8
DEFPOINTS
  6
BYBLOCK
 62
     0
100
AcDbPoint
 10
695.892497
 20
1752.293319
 30
0.0
  0
POINT
  5
B82
100
AcDbEntity
  8
DEFPOINTS
  6
BYBLOCK
 62
     0
100
AcDbPoint
 10
760.453828
 20
1752.293319
 30
0.0
  0
ENDBLK
  5
B83
100
AcDbEntity
  8
0
100
AcDbBlockEnd
  0
BLOCK
  5
BB0
100
AcDbEntity
  8
0
100
AcDbBlockBegin
  2
*D10
 70
     1
 10
0.0
 20
0.0
 30
0.0
  3
*D10
  1

  0
LINE
  5
BB1
100
AcDbEntity
  8
0
  6
BYBLOCK
 62
     0
100
AcDbLine
 10
215.288589
 20
1722.293319
 30
0.0
 11
147.045175
 21
1722.293319
 31
0.0
  0
LINE
  5
BB2
100
AcDbEntity
  8
0
  6
BYBLOCK
 62
     0
100
AcDbLine
 10
217.570368
 20
1292.293319
 30
0.0
 11
147.045175
 21
1292.293319
 31
0.0
  0
LINE
  5
BB3
100
AcDbEntity
  8
0
  6
BYBLOCK
 62
     0
100
AcDbLine
 10
151.253929
 20
1713.875811
 30
0.0
 11
151.253929
 21
1300.710827
 31
0.0
  0
SOLID
  5
BB4
100
AcDbEntity
  8
0
  6
BYBLOCK
 62
     0
100
AcDbTrace
 10
149.851011
 20
1713.875811
 30
0.0
 11
152.656847
 21
1713.875811
 31
0.0
 12
151.253929
 22
1722.293319
 32
0.0
 13
151.253929
 23
1722.293319
 33
0.0
  0
SOLID
  5
BB5
100
AcDbEntity
  8
0
  6
BYBLOCK
 62
     0
100
AcDbTrace
 10
149.851011
 20
1300.710827
 30
0.0
 11
152.656847
 21
1300.710827
 31
0.0
 12
151.253929
 22
1292.293319
 32
0.0
 13
151.253929
 23
1292.293319
 33
0.0
  0
MTEXT
  5
BB6
100
AcDbEntity
  8
0
  6
BYBLOCK
 62
     0
100
AcDbMText
 10
139.149552
 20
1507.293319
 30
0.0
 40
20.0
 41
0.0
 71
     5
 72
     1
  1
\A1;430
 11
0.0
 21
1.0
 31
0.0
  0
POINT
  5
BB7
100
AcDbEntity
  8
DEFPOINTS
  6
BYBLOCK
 62
     0
100
AcDbPoint
 10
217.392966
 20
1722.293319
 30
0.0
  0
POINT
  5
BB8
100
AcDbEntity
  8
DEFPOINTS
  6
BYBLOCK
 62
     0
100
AcDbPoint
 10
219.674745
 20
1292.293319
 30
0.0
  0
POINT
  5
BB9
100
AcDbEntity
  8
DEFPOINTS
  6
BYBLOCK
 62
     0
100
AcDbPoint
 10
151.253929
 20
1292.293319
 30
0.0
  0
ENDBLK
  5
BBA
100
AcDbEntity
  8
0
100
AcDbBlockEnd
  0
BLOCK
  5
F77
100
AcDbEntity
  8
0
100
AcDbBlockBegin
  2
*D11
 70
     1
 10
0.0
 20
0.0
 30
0.0
  3
*D11
  1

  0
LINE
  5
F78
100
AcDbEntity
  8
0
  6
BYBLOCK
 62
     0
100
AcDbLine
 10
971.600308
 20
1752.293319
 30
0.0
 11
1037.045343
 21
1752.293319
 31
0.0
  0
LINE
  5
F79
100
AcDbEntity
  8
0
  6
BYBLOCK
 62
     0
100
AcDbLine
 10
987.944851
 20
1252.293319
 30
0.0
 11
1037.045343
 21
1252.293319
 31
0.0
  0
LINE
  5
F7A
100
AcDbEntity
  8
0
  6
BYBLOCK
 62
     0
100
AcDbLine
 10
1032.836589
 20
1743.875811
 30
0.0
 11
1032.836589
 21
1260.710827
 31
0.0
  0
SOLID
  5
F7B
100
AcDbEntity
  8
0
  6
BYBLOCK
 62
     0
100
AcDbTrace
 10
1031.433671
 20
1743.875811
 30
0.0
 11
1034.239507
 21
1743.875811
 31
0.0
 12
1032.836589
 22
1752.293319
 32
0.0
 13
1032.836589
 23
1752.293319
 33
0.0
  0
SOLID
  5
F7C
100
AcDbEntity
  8
0
  6
BYBLOCK
 62
     0
100
AcDbTrace
 10
1031.433671
 20
1260.710827
 30
0.0
 11
1034.239507
 21
1260.710827
 31
0.0
 12
1032.836589
 22
1252.293319
 32
0.0
 13
1032.836589
 23
1252.293319
 33
0.0
  0
MTEXT
  5
F7D
100
AcDbEntity
  8
0
  6
BYBLOCK
 62
     0
100
AcDbMText
 10
1020.732212
 20
1581.773796
 30
0.0
 40
20.0
 41
0.0
 71
     5
 72
     1
  1
\A1;500
 11
0.0
 21
1.0
 31
0.0
  0
POINT
  5
F7E
100
AcDbEntity
  8
DEFPOINTS
  6
BYBLOCK
 62
     0
100
AcDbPoint
 10
969.495931
 20
1752.293319
 30
0.0
  0
POINT
  5
F7F
100
AcDbEntity
  8
DEFPOINTS
  6
BYBLOCK
 62
     0
100
AcDbPoint
 10
985.840474
 20
1252.293319
 30
0.0
  0
POINT
  5
F80
100
AcDbEntity
  8
DEFPOINTS
  6
BYBLOCK
 62
     0
100
AcDbPoint
 10
1032.836589
 20
1252.293319
 30
0.0
  0
ENDBLK
  5
F81
100
AcDbEntity
  8
0
100
AcDbBlockEnd
  0
BLOCK
  5
B6E
100
AcDbEntity
  8
0
100
AcDbBlockBegin
  2
*D12
 70
     1
 10
0.0
 20
0.0
 30
0.0
  3
*D12
  1

  0
LINE
  5
B6F
100
AcDbEntity
  8
0
  6
BYBLOCK
 62
     0
100
AcDbLine
 10
563.037643
 20
1825.293319
 30
0.0
 11
602.011622
 21
1825.293319
 31
0.0
  0
LINE
  5
B70
100
AcDbEntity
  8
0
  6
BYBLOCK
 62
     0
100
AcDbLine
 10
565.584048
 20
1768.293319
 30
0.0
 11
602.011622
 21
1768.293319
 31
0.0
  0
LINE
  5
B71
100
AcDbEntity
  8
0
  6
BYBLOCK
 62
     0
100
AcDbLine
 10
597.802868
 20
1816.875811
 30
0.0
 11
597.802868
 21
1776.710827
 31
0.0
  0
SOLID
  5
B72
100
AcDbEntity
  8
0
  6
BYBLOCK
 62
     0
100
AcDbTrace
 10
596.39995
 20
1816.875811
 30
0.0
 11
599.205786
 21
1816.875811
 31
0.0
 12
597.802868
 22
1825.293319
 32
0.0
 13
597.802868
 23
1825.293319
 33
0.0
  0
SOLID
  5
B73
100
AcDbEntity
  8
0
  6
BYBLOCK
 62
     0
100
AcDbTrace
 10
596.39995
 20
1776.710827
 30
0.0
 11
599.205786
 21
1776.710827
 31
0.0
 12
597.802868
 22
1768.293319
 32
0.0
 13
597.802868
 23
1768.293319
 33
0.0
  0
MTEXT
  5
B74
100
AcDbEntity
  8
0
  6
BYBLOCK
 62
     0
100
AcDbMText
 10
585.698491
 20
1796.793319
 30
0.0
 40
20.0
 41
0.0
 71
     5
 72
     1
  1
\A1;57
 11
0.0
 21
1.0
 31
0.0
  0
POINT
  5
B75
100
AcDbEntity
  8
DEFPOINTS
  6
BYBLOCK
 62
     0
100
AcDbPoint
 10
560.933266
 20
1825.293319
 30
0.0
  0
POINT
  5
B76
100
AcDbEntity
  8
DEFPOINTS
  6
BYBLOCK
 62
     0
100
AcDbPoint
 10
563.479671
 20
1768.293319
 30
0.0
  0
POINT
  5
B77
100
AcDbEntity
  8
DEFPOINTS
  6
BYBLOCK
 62
     0
100
AcDbPoint
 10
597.802868
 20
1768.293319
 30
0.0
  0
ENDBLK
  5
B78
100
AcDbEntity
  8
0
100
AcDbBlockEnd
  0
BLOCK
  5
BF2
100
AcDbEntity
  8
0
100
AcDbBlockBegin
  2
*D13
 70
     1
 10
0.0
 20
0.0
 30
0.0
  3
*D13
  1

  0
LINE
  5
BF3
100
AcDbEntity
  8
0
  6
BYBLOCK
 62
     0
100
AcDbLine
 10
564.446653
 20
1002.87257
 30
0.0
 11
600.327503
 21
1002.87257
 31
0.0
  0
LINE
  5
BF4
100
AcDbEntity
  8
0
  6
BYBLOCK
 62
     0
100
AcDbLine
 10
552.997023
 20
942.87257
 30
0.0
 11
600.327503
 21
942.87257
 31
0.0
  0
LINE
  5
BF5
100
AcDbEntity
  8
0
  6
BYBLOCK
 62
     0
100
AcDbLine
 10
596.118748
 20
994.455062
 30
0.0
 11
596.118748
 21
951.290079
 31
0.0
  0
SOLID
  5
BF6
100
AcDbEntity
  8
0
  6
BYBLOCK
 62
     0
100
AcDbTrace
 10
594.71583
 20
994.455062
 30
0.0
 11
597.521666
 21
994.455062
 31
0.0
 12
596.118748
 22
1002.87257
 32
0.0
 13
596.118748
 23
1002.87257
 33
0.0
  0
SOLID
  5
BF7
100
AcDbEntity
  8
0
  6
BYBLOCK
 62
     0
100
AcDbTrace
 10
594.71583
 20
951.290079
 30
0.0
 11
597.521666
 21
951.290079
 31
0.0
 12
596.118748
 22
942.87257
 32
0.0
 13
596.118748
 23
942.87257
 33
0.0
  0
MTEXT
  5
BF8
100
AcDbEntity
  8
0
  6
BYBLOCK
 62
     0
100
AcDbMText
 10
584.014371
 20
972.87257
 30
0.0
 40
20.0
 41
0.0
 71
     5
 72
     1
  1
\A1;60
 11
0.0
 21
1.0
 31
0.0
  0
POINT
  5
BF9
100
AcDbEntity
  8
DEFPOINTS
  6
BYBLOCK
 62
     0
100
AcDbPoint
 10
562.342276
 20
1002.87257
 30
0.0
  0
POINT
  5
BFA
100
AcDbEntity
  8
DEFPOINTS
  6
BYBLOCK
 62
     0
100
AcDbPoint
 10
550.892646
 20
942.87257
 30
0.0
  0
POINT
  5
BFB
100
AcDbEntity
  8
DEFPOINTS
  6
BYBLOCK
 62
     0
100
AcDbPoint
 10
596.118748
 20
942.87257
 30
0.0
  0
ENDBLK
  5
BFC
100
AcDbEntity
  8
0
100
AcDbBlockEnd
  0
BLOCK
  5
DDE
100
AcDbEntity
  8
0
100
AcDbBlockBegin
  2
*D14
 70
     1
 10
0.0
 20
0.0
 30
0.0
  3
*D14
  1

  0
LINE
  5
DDF
100
AcDbEntity
  8
0
  6
BYBLOCK
 62
     0
100
AcDbLine
 10
1531.389366
 20
859.993351
 30
0.0
 11
1531.389366
 21
1064.034225
 31
0.0
  0
LINE
  5
DE0
100
AcDbEntity
  8
0
  6
BYBLOCK
 62
     0
100
AcDbLine
 10
2121.389366
 20
961.342865
 30
0.0
 11
2121.389366
 21
1064.034225
 31
0.0
  0
LINE
  5
DE1
100
AcDbEntity
  8
0
  6
BYBLOCK
 62
     0
100
AcDbLine
 10
1539.806875
 20
1059.825471
 30
0.0
 11
2112.971858
 21
1059.825471
 31
0.0
  0
SOLID
  5
DE2
100
AcDbEntity
  8
0
  6
BYBLOCK
 62
     0
100
AcDbTrace
 10
1539.806875
 20
1061.228389
 30
0.0
 11
1539.806875
 21
1058.422553
 31
0.0
 12
1531.389366
 22
1059.825471
 32
0.0
 13
1531.389366
 23
1059.825471
 33
0.0
  0
SOLID
  5
DE3
100
AcDbEntity
  8
0
  6
BYBLOCK
 62
     0
100
AcDbTrace
 10
2112.971858
 20
1061.228389
 30
0.0
 11
2112.971858
 21
1058.422553
 31
0.0
 12
2121.389366
 22
1059.825471
 32
0.0
 13
2121.389366
 23
1059.825471
 33
0.0
  0
MTEXT
  5
DE4
100
AcDbEntity
  8
0
  6
BYBLOCK
 62
     0
100
AcDbMText
 10
1826.389366
 20
1071.929848
 30
0.0
 40
20.0
 41
0.0
 71
     5
 72
     1
  1
\A1;590
  0
POINT
  5
DE5
100
AcDbEntity
  8
DEFPOINTS
  6
BYBLOCK
 62
     0
100
AcDbPoint
 10
1531.389366
 20
857.888974
 30
0.0
  0
POINT
  5
DE6
100
AcDbEntity
  8
DEFPOINTS
  6
BYBLOCK
 62
     0
100
AcDbPoint
 10
2121.389366
 20
959.238487
 30
0.0
  0
POINT
  5
DE7
100
AcDbEntity
  8
DEFPOINTS
  6
BYBLOCK
 62
     0
100
AcDbPoint
 10
2121.389366
 20
1059.825471
 30
0.0
  0
ENDBLK
  5
DE8
100
AcDbEntity
  8
0
100
AcDbBlockEnd
  0
BLOCK
  5
DFE
100
AcDbEntity
  8
0
100
AcDbBlockBegin
  2
*D15
 70
     1
 10
0.0
 20
0.0
 30
0.0
  3
*D15
  1

  0
LINE
  5
DFF
100
AcDbEntity
  8
0
  6
BYBLOCK
 62
     0
100
AcDbLine
 10
1531.389366
 20
859.993351
 30
0.0
 11
1531.389366
 21
909.201833
 31
0.0
  0
LINE
  5
E00
100
AcDbEntity
  8
0
  6
BYBLOCK
 62
     0
100
AcDbLine
 10
1571.389366
 20
832.434582
 30
0.0
 11
1571.389366
 21
909.201833
 31
0.0
  0
LINE
  5
E01
100
AcDbEntity
  8
0
  6
BYBLOCK
 62
     0
100
AcDbLine
 10
1539.806875
 20
904.993079
 30
0.0
 11
1562.971858
 21
904.993079
 31
0.0
  0
SOLID
  5
E02
100
AcDbEntity
  8
0
  6
BYBLOCK
 62
     0
100
AcDbTrace
 10
1539.806875
 20
906.395997
 30
0.0
 11
1539.806875
 21
903.590161
 31
0.0
 12
1531.389366
 22
904.993079
 32
0.0
 13
1531.389366
 23
904.993079
 33
0.0
  0
SOLID
  5
E03
100
AcDbEntity
  8
0
  6
BYBLOCK
 62
     0
100
AcDbTrace
 10
1562.971858
 20
906.395997
 30
0.0
 11
1562.971858
 21
903.590161
 31
0.0
 12
1571.389366
 22
904.993079
 32
0.0
 13
1571.389366
 23
904.993079
 33
0.0
  0
MTEXT
  5
E04
100
AcDbEntity
  8
0
  6
BYBLOCK
 62
     0
100
AcDbMText
 10
1551.389366
 20
917.097456
 30
0.0
 40
20.0
 41
0.0
 71
     5
 72
     1
  1
\A1;40
  0
POINT
  5
E05
100
AcDbEntity
  8
DEFPOINTS
  6
BYBLOCK
 62
     0
100
AcDbPoint
 10
1531.389366
 20
857.888974
 30
0.0
  0
POINT
  5
E06
100
AcDbEntity
  8
DEFPOINTS
  6
BYBLOCK
 62
     0
100
AcDbPoint
 10
1571.389366
 20
830.330205
 30
0.0
  0
POINT
  5
E07
100
AcDbEntity
  8
DEFPOINTS
  6
BYBLOCK
 62
     0
100
AcDbPoint
 10
1571.389366
 20
904.993079
 30
0.0
  0
ENDBLK
  5
E08
100
AcDbEntity
  8
0
100
AcDbBlockEnd
  0
BLOCK
  5
DF4
100
AcDbEntity
  8
0
100
AcDbBlockBegin
  2
*D16
 70
     1
 10
0.0
 20
0.0
 30
0.0
  3
*D16
  1

  0
LINE
  5
DF5
100
AcDbEntity
  8
0
  6
BYBLOCK
 62
     0
100
AcDbLine
 10
2001.389366
 20
833.156704
 30
0.0
 11
2001.389366
 21
909.201833
 31
0.0
  0
LINE
  5
DF6
100
AcDbEntity
  8
0
  6
BYBLOCK
 62
     0
100
AcDbLine
 10
1579.806875
 20
904.993079
 30
0.0
 11
1992.971858
 21
904.993079
 31
0.0
  0
SOLID
  5
DF7
100
AcDbEntity
  8
0
  6
BYBLOCK
 62
     0
100
AcDbTrace
 10
1579.806875
 20
906.395997
 30
0.0
 11
1579.806875
 21
903.590161
 31
0.0
 12
1571.389366
 22
904.993079
 32
0.0
 13
1571.389366
 23
904.993079
 33
0.0
  0
SOLID
  5
DF8
100
AcDbEntity
  8
0
  6
BYBLOCK
 62
     0
100
AcDbTrace
 10
1992.971858
 20
906.395997
 30
0.0
 11
1992.971858
 21
903.590161
 31
0.0
 12
2001.389366
 22
904.993079
 32
0.0
 13
2001.389366
 23
904.993079
 33
0.0
  0
MTEXT
  5
DF9
100
AcDbEntity
  8
0
  6
BYBLOCK
 62
     0
100
AcDbMText
 10
1786.389366
 20
917.097456
 30
0.0
 40
20.0
 41
0.0
 71
     5
 72
     1
  1
\A1;430
  0
POINT
  5
DFA
100
AcDbEntity
  8
DEFPOINTS
  6
BYBLOCK
 62
     0
100
AcDbPoint
 10
1571.389366
 20
830.330205
 30
0.0
  0
POINT
  5
DFB
100
AcDbEntity
  8
DEFPOINTS
  6
BYBLOCK
 62
     0
100
AcDbPoint
 10
2001.389366
 20
831.052327
 30
0.0
  0
POINT
  5
DFC
100
AcDbEntity
  8
DEFPOINTS
  6
BYBLOCK
 62
     0
100
AcDbPoint
 10
2001.389366
 20
904.993079
 30
0.0
  0
ENDBLK
  5
DFD
100
AcDbEntity
  8
0
100
AcDbBlockEnd
  0
BLOCK
  5
D38
100
AcDbEntity
  8
0
100
AcDbBlockBegin
  2
*D17
 70
     1
 10
0.0
 20
0.0
 30
0.0
  3
*D17
  1

  0
LINE
  5
D39
100
AcDbEntity
  8
0
  6
BYBLOCK
 62
     0
100
AcDbLine
 10
1866.784989
 20
722.87257
 30
0.0
 11
1863.513122
 21
722.87257
 31
0.0
  0
LINE
  5
D3A
100
AcDbEntity
  8
0
  6
BYBLOCK
 62
     0
100
AcDbLine
 10
1866.784989
 20
842.87257
 30
0.0
 11
1863.513122
 21
842.87257
 31
0.0
  0
LINE
  5
D3B
100
AcDbEntity
  8
0
  6
BYBLOCK
 62
     0
100
AcDbLine
 10
1867.721877
 20
731.290079
 30
0.0
 11
1867.721877
 21
834.455062
 31
0.0
  0
SOLID
  5
D3C
100
AcDbEntity
  8
0
  6
BYBLOCK
 62
     0
100
AcDbTrace
 10
1866.318959
 20
731.290079
 30
0.0
 11
1869.124795
 21
731.290079
 31
0.0
 12
1867.721877
 22
722.87257
 32
0.0
 13
1867.721877
 23
722.87257
 33
0.0
  0
SOLID
  5
D3D
100
AcDbEntity
  8
0
  6
BYBLOCK
 62
     0
100
AcDbTrace
 10
1866.318959
 20
834.455062
 30
0.0
 11
1869.124795
 21
834.455062
 31
0.0
 12
1867.721877
 22
842.87257
 32
0.0
 13
1867.721877
 23
842.87257
 33
0.0
  0
MTEXT
  5
D3E
100
AcDbEntity
  8
0
  6
BYBLOCK
 62
     0
100
AcDbMText
 10
1855.6175
 20
782.87257
 30
0.0
 40
20.0
 41
0.0
 71
     5
 72
     1
  1
\A1;120
 11
0.0
 21
1.0
 31
0.0
  0
POINT
  5
D3F
100
AcDbEntity
  8
DEFPOINTS
  6
BYBLOCK
 62
     0
100
AcDbPoint
 10
1868.889366
 20
722.87257
 30
0.0
  0
POINT
  5
D40
100
AcDbEntity
  8
DEFPOINTS
  6
BYBLOCK
 62
     0
100
AcDbPoint
 10
1868.889366
 20
842.87257
 30
0.0
  0
POINT
  5
D41
100
AcDbEntity
  8
DEFPOINTS
  6
BYBLOCK
 62
     0
100
AcDbPoint
 10
1867.721877
 20
842.87257
 30
0.0
  0
ENDBLK
  5
D42
100
AcDbEntity
  8
0
100
AcDbBlockEnd
  0
BLOCK
  5
DE9
100
AcDbEntity
  8
0
100
AcDbBlockBegin
  2
*D18
 70
     1
 10
0.0
 20
0.0
 30
0.0
  3
*D18
  1

  0
LINE
  5
DEA
100
AcDbEntity
  8
0
  6
BYBLOCK
 62
     0
100
AcDbLine
 10
2121.389366
 20
961.342865
 30
0.0
 11
2121.389366
 21
1029.272568
 31
0.0
  0
LINE
  5
DEB
100
AcDbEntity
  8
0
  6
BYBLOCK
 62
     0
100
AcDbLine
 10
2031.389366
 20
964.807356
 30
0.0
 11
2031.389366
 21
1029.272568
 31
0.0
  0
LINE
  5
DEC
100
AcDbEntity
  8
0
  6
BYBLOCK
 62
     0
100
AcDbLine
 10
2112.971858
 20
1025.063814
 30
0.0
 11
2039.806875
 21
1025.063814
 31
0.0
  0
SOLID
  5
DED
100
AcDbEntity
  8
0
  6
BYBLOCK
 62
     0
100
AcDbTrace
 10
2112.971858
 20
1026.466732
 30
0.0
 11
2112.971858
 21
1023.660896
 31
0.0
 12
2121.389366
 22
1025.063814
 32
0.0
 13
2121.389366
 23
1025.063814
 33
0.0
  0
SOLID
  5
DEE
100
AcDbEntity
  8
0
  6
BYBLOCK
 62
     0
100
AcDbTrace
 10
2039.806875
 20
1026.466732
 30
0.0
 11
2039.806875
 21
1023.660896
 31
0.0
 12
2031.389366
 22
1025.063814
 32
0.0
 13
2031.389366
 23
1025.063814
 33
0.0
  0
MTEXT
  5
DEF
100
AcDbEntity
  8
0
  6
BYBLOCK
 62
     0
100
AcDbMText
 10
2076.389366
 20
1037.168191
 30
0.0
 40
20.0
 41
0.0
 71
     5
 72
     1
  1
\A1;90
  0
POINT
  5
DF0
100
AcDbEntity
  8
DEFPOINTS
  6
BYBLOCK
 62
     0
100
AcDbPoint
 10
2121.389366
 20
959.238487
 30
0.0
  0
POINT
  5
DF1
100
AcDbEntity
  8
DEFPOINTS
  6
BYBLOCK
 62
     0
100
AcDbPoint
 10
2031.389366
 20
962.702979
 30
0.0
  0
POINT
  5
DF2
100
AcDbEntity
  8
DEFPOINTS
  6
BYBLOCK
 62
     0
100
AcDbPoint
 10
2031.389366
 20
1025.063814
 30
0.0
  0
ENDBLK
  5
DF3
100
AcDbEntity
  8
0
100
AcDbBlockEnd
  0
BLOCK
  5
DD3
100
AcDbEntity
  8
0
100
AcDbBlockBegin
  2
*D19
 70
     1
 10
0.0
 20
0.0
 30
0.0
  3
*D19
  1

  0
LINE
  5
DD4
100
AcDbEntity
  8
0
  6
BYBLOCK
 62
     0
100
AcDbLine
 10
1573.493743
 20
817.87257
 30
0.0
 11
1588.608686
 21
817.87257
 31
0.0
  0
LINE
  5
DD5
100
AcDbEntity
  8
0
  6
BYBLOCK
 62
     0
100
AcDbLine
 10
1573.493743
 20
747.87257
 30
0.0
 11
1588.608686
 21
747.87257
 31
0.0
  0
LINE
  5
DD6
100
AcDbEntity
  8
0
  6
BYBLOCK
 62
     0
100
AcDbLine
 10
1584.399932
 20
809.455062
 30
0.0
 11
1584.399932
 21
756.290079
 31
0.0
  0
SOLID
  5
DD7
100
AcDbEntity
  8
0
  6
BYBLOCK
 62
     0
100
AcDbTrace
 10
1582.997014
 20
809.455062
 30
0.0
 11
1585.80285
 21
809.455062
 31
0.0
 12
1584.399932
 22
817.87257
 32
0.0
 13
1584.399932
 23
817.87257
 33
0.0
  0
SOLID
  5
DD8
100
AcDbEntity
  8
0
  6
BYBLOCK
 62
     0
100
AcDbTrace
 10
1582.997014
 20
756.290079
 30
0.0
 11
1585.80285
 21
756.290079
 31
0.0
 12
1584.399932
 22
747.87257
 32
0.0
 13
1584.399932
 23
747.87257
 33
0.0
  0
MTEXT
  5
DD9
100
AcDbEntity
  8
0
  6
BYBLOCK
 62
     0
100
AcDbMText
 10
1572.295555
 20
782.87257
 30
0.0
 40
20.0
 41
0.0
 71
     5
 72
     1
  1
\A1;70
 11
0.0
 21
1.0
 31
0.0
  0
POINT
  5
DDA
100
AcDbEntity
  8
DEFPOINTS
  6
BYBLOCK
 62
     0
100
AcDbPoint
 10
1571.389366
 20
817.87257
 30
0.0
  0
POINT
  5
DDB
100
AcDbEntity
  8
DEFPOINTS
  6
BYBLOCK
 62
     0
100
AcDbPoint
 10
1571.389366
 20
747.87257
 30
0.0
  0
POINT
  5
DDC
100
AcDbEntity
  8
DEFPOINTS
  6
BYBLOCK
 62
     0
100
AcDbPoint
 10
1584.399932
 20
747.87257
 30
0.0
  0
ENDBLK
  5
DDD
100
AcDbEntity
  8
0
100
AcDbBlockEnd
  0
BLOCK
  5
E43
100
AcDbEntity
  8
0
100
AcDbBlockBegin
  2
A$C7BAC38FA
 70
     0
 10
0.0
 20
0.0
 30
0.0
  3
A$C7BAC38FA
  1

  0
LINE
  5
E33
100
AcDbEntity
  8
0
100
AcDbLine
 10
29.0
 20
41.0
 30
0.0
 11
29.0
 21
0.0
 31
0.0
  0
LINE
  5
E34
100
AcDbEntity
  8
0
100
AcDbLine
 10
41.0
 20
33.0
 30
0.0
 11
41.0
 21
8.0
 31
0.0
  0
LINE
  5
E35
100
AcDbEntity
  8
0
100
AcDbLine
 10
0.0
 20
33.0
 30
0.0
 11
0.0
 21
8.0
 31
0.0
  0
LINE
  5
E36
100
AcDbEntity
  8
0
100
AcDbLine
 10
12.0
 20
41.0
 30
0.0
 11
12.0
 21
0.0
 31
0.0
  0
LINE
  5
E37
100
AcDbEntity
  8
0
100
AcDbLine
 10
12.0
 20
10.5
 30
0.0
 11
29.0
 21
10.5
 31
0.0
  0
LINE
  5
E38
100
AcDbEntity
  8
0
100
AcDbLine
 10
12.0
 20
0.0
 30
0.0
 11
29.0
 21
0.0
 31
0.0
  0
LINE
  5
E39
100
AcDbEntity
  8
0
100
AcDbLine
 10
12.0
 20
15.5
 30
0.0
 11
0.0
 21
15.5
 31
0.0
  0
LINE
  5
E3A
100
AcDbEntity
  8
0
100
AcDbLine
 10
12.0
 20
8.0
 30
0.0
 11
0.0
 21
8.0
 31
0.0
  0
LINE
  5
E3B
100
AcDbEntity
  8
0
100
AcDbLine
 10
29.0
 20
15.5
 30
0.0
 11
41.0
 21
15.5
 31
0.0
  0
LINE
  5
E3C
100
AcDbEntity
  8
0
100
AcDbLine
 10
29.0
 20
8.0
 30
0.0
 11
41.0
 21
8.0
 31
0.0
  0
LINE
  5
E3D
100
AcDbEntity
  8
0
100
AcDbLine
 10
12.0
 20
30.5
 30
0.0
 11
29.0
 21
30.5
 31
0.0
  0
LINE
  5
E3E
100
AcDbEntity
  8
0
100
AcDbLine
 10
12.0
 20
41.0
 30
0.0
 11
29.0
 21
41.0
 31
0.0
  0
LINE
  5
E3F
100
AcDbEntity
  8
0
100
AcDbLine
 10
12.0
 20
25.5
 30
0.0
 11
0.0
 21
25.5
 31
0.0
  0
LINE
  5
E40
100
AcDbEntity
  8
0
100
AcDbLine
 10
12.0
 20
33.0
 30
0.0
 11
0.0
 21
33.0
 31
0.0
  0
LINE
  5
E41
100
AcDbEntity
  8
0
100
AcDbLine
 10
29.0
 20
25.5
 30
0.0
 11
41.0
 21
25.5
 31
0.0
  0
LINE
  5
E42
100
AcDbEntity
  8
0
100
AcDbLine
 10
29.0
 20
33.0
 30
0.0
 11
41.0
 21
33.0
 31
0.0
  0
ENDBLK
  5
E44
100
AcDbEntity
  8
0
100
AcDbBlockEnd
  0
BLOCK
  5
E65
100
AcDbEntity
  8
0
100
AcDbBlockBegin
  2
*D21
 70
     1
 10
0.0
 20
0.0
 30
0.0
  3
*D21
  1

  0
LINE
  5
E66
100
AcDbEntity
  8
0
  6
BYBLOCK
 62
     0
100
AcDbLine
 10
1738.493743
 20
732.87257
 30
0.0
 11
1743.483655
 21
732.87257
 31
0.0
  0
LINE
  5
E67
100
AcDbEntity
  8
0
  6
BYBLOCK
 62
     0
100
AcDbLine
 10
1738.493743
 20
817.87257
 30
0.0
 11
1743.483655
 21
817.87257
 31
0.0
  0
LINE
  5
E68
100
AcDbEntity
  8
0
  6
BYBLOCK
 62
     0
100
AcDbLine
 10
1739.274901
 20
741.290079
 30
0.0
 11
1739.274901
 21
809.455062
 31
0.0
  0
SOLID
  5
E69
100
AcDbEntity
  8
0
  6
BYBLOCK
 62
     0
100
AcDbTrace
 10
1737.871983
 20
741.290079
 30
0.0
 11
1740.677819
 21
741.290079
 31
0.0
 12
1739.274901
 22
732.87257
 32
0.0
 13
1739.274901
 23
732.87257
 33
0.0
  0
SOLID
  5
E6A
100
AcDbEntity
  8
0
  6
BYBLOCK
 62
     0
100
AcDbTrace
 10
1737.871983
 20
809.455062
 30
0.0
 11
1740.677819
 21
809.455062
 31
0.0
 12
1739.274901
 22
817.87257
 32
0.0
 13
1739.274901
 23
817.87257
 33
0.0
  0
MTEXT
  5
E6B
100
AcDbEntity
  8
0
  6
BYBLOCK
 62
     0
100
AcDbMText
 10
1727.170524
 20
775.37257
 30
0.0
 40
20.0
 41
0.0
 71
     5
 72
     1
  1
\A1;85
 11
0.0
 21
1.0
 31
0.0
  0
POINT
  5
E6C
100
AcDbEntity
  8
DEFPOINTS
  6
BYBLOCK
 62
     0
100
AcDbPoint
 10
1736.389366
 20
732.87257
 30
0.0
  0
POINT
  5
E6D
100
AcDbEntity
  8
DEFPOINTS
  6
BYBLOCK
 62
     0
100
AcDbPoint
 10
1736.389366
 20
817.87257
 30
0.0
  0
POINT
  5
E6E
100
AcDbEntity
  8
DEFPOINTS
  6
BYBLOCK
 62
     0
100
AcDbPoint
 10
1739.274901
 20
817.87257
 30
0.0
  0
ENDBLK
  5
E6F
100
AcDbEntity
  8
0
100
AcDbBlockEnd
  0
BLOCK
  5
E96
100
AcDbEntity
  8
0
100
AcDbBlockBegin
  2
*D22
 70
     1
 10
0.0
 20
0.0
 30
0.0
  3
*D22
  1

  0
LINE
  5
E97
100
AcDbEntity
  8
0
  6
BYBLOCK
 62
     0
100
AcDbLine
 10
2031.389366
 20
862.555582
 30
0.0
 11
2031.389366
 21
924.410885
 31
0.0
  0
LINE
  5
E98
100
AcDbEntity
  8
0
  6
BYBLOCK
 62
     0
100
AcDbLine
 10
2001.389366
 20
864.052895
 30
0.0
 11
2001.389366
 21
924.410885
 31
0.0
  0
LINE
  5
E99
100
AcDbEntity
  8
0
  6
BYBLOCK
 62
     0
100
AcDbLine
 10
2022.971858
 20
920.202131
 30
0.0
 11
2009.806875
 21
920.202131
 31
0.0
  0
LINE
  5
E9A
100
AcDbEntity
  8
0
  6
BYBLOCK
 62
     0
100
AcDbLine
 10
2001.389366
 20
920.202131
 30
0.0
 11
1958.763103
 21
920.202131
 31
0.0
  0
SOLID
  5
E9B
100
AcDbEntity
  8
0
  6
BYBLOCK
 62
     0
100
AcDbTrace
 10
2022.971858
 20
921.605049
 30
0.0
 11
2022.971858
 21
918.799213
 31
0.0
 12
2031.389366
 22
920.202131
 32
0.0
 13
2031.389366
 23
920.202131
 33
0.0
  0
SOLID
  5
E9C
100
AcDbEntity
  8
0
  6
BYBLOCK
 62
     0
100
AcDbTrace
 10
2009.806875
 20
921.605049
 30
0.0
 11
2009.806875
 21
918.799213
 31
0.0
 12
2001.389366
 22
920.202131
 32
0.0
 13
2001.389366
 23
920.202131
 33
0.0
  0
MTEXT
  5
E9D
100
AcDbEntity
  8
0
  6
BYBLOCK
 62
     0
100
AcDbMText
 10
1975.867481
 20
932.306508
 30
0.0
 40
20.0
 41
0.0
 71
     5
 72
     1
  1
\A1;30
  0
POINT
  5
E9E
100
AcDbEntity
  8
DEFPOINTS
  6
BYBLOCK
 62
     0
100
AcDbPoint
 10
2031.389366
 20
860.451205
 30
0.0
  0
POINT
  5
E9F
100
AcDbEntity
  8
DEFPOINTS
  6
BYBLOCK
 62
     0
100
AcDbPoint
 10
2001.389366
 20
861.948518
 30
0.0
  0
POINT
  5
EA0
100
AcDbEntity
  8
DEFPOINTS
  6
BYBLOCK
 62
     0
100
AcDbPoint
 10
2001.389366
 20
920.202131
 30
0.0
  0
ENDBLK
  5
EA1
100
AcDbEntity
  8
0
100
AcDbBlockEnd
  0
BLOCK
  5
F6B
100
AcDbEntity
  8
0
100
AcDbBlockBegin
  2
*D23
 70
     1
 10
0.0
 20
0.0
 30
0.0
  3
*D23
  1

  0
LINE
  5
F6C
100
AcDbEntity
  8
0
  6
BYBLOCK
 62
     0
100
AcDbLine
 10
850.320312
 20
1825.293319
 30
0.0
 11
889.294291
 21
1825.293319
 31
0.0
  0
LINE
  5
F6D
100
AcDbEntity
  8
0
  6
BYBLOCK
 62
     0
100
AcDbLine
 10
852.866717
 20
1768.293319
 30
0.0
 11
889.294291
 21
1768.293319
 31
0.0
  0
LINE
  5
F6E
100
AcDbEntity
  8
0
  6
BYBLOCK
 62
     0
100
AcDbLine
 10
885.085537
 20
1816.875811
 30
0.0
 11
885.085537
 21
1776.710827
 31
0.0
  0
SOLID
  5
F6F
100
AcDbEntity
  8
0
  6
BYBLOCK
 62
     0
100
AcDbTrace
 10
883.682619
 20
1816.875811
 30
0.0
 11
886.488455
 21
1816.875811
 31
0.0
 12
885.085537
 22
1825.293319
 32
0.0
 13
885.085537
 23
1825.293319
 33
0.0
  0
SOLID
  5
F70
100
AcDbEntity
  8
0
  6
BYBLOCK
 62
     0
100
AcDbTrace
 10
883.682619
 20
1776.710827
 30
0.0
 11
886.488455
 21
1776.710827
 31
0.0
 12
885.085537
 22
1768.293319
 32
0.0
 13
885.085537
 23
1768.293319
 33
0.0
  0
MTEXT
  5
F71
100
AcDbEntity
  8
0
  6
BYBLOCK
 62
     0
100
AcDbMText
 10
872.98116
 20
1796.793319
 30
0.0
 40
20.0
 41
0.0
 71
     5
 72
     1
  1
\A1;57
 11
0.0
 21
1.0
 31
0.0
  0
POINT
  5
F72
100
AcDbEntity
  8
DEFPOINTS
  6
BYBLOCK
 62
     0
100
AcDbPoint
 10
848.215935
 20
1825.293319
 30
0.0
  0
POINT
  5
F73
100
AcDbEntity
  8
DEFPOINTS
  6
BYBLOCK
 62
     0
100
AcDbPoint
 10
850.76234
 20
1768.293319
 30
0.0
  0
POINT
  5
F74
100
AcDbEntity
  8
DEFPOINTS
  6
BYBLOCK
 62
     0
100
AcDbPoint
 10
885.085537
 20
1768.293319
 30
0.0
  0
ENDBLK
  5
F75
100
AcDbEntity
  8
0
100
AcDbBlockEnd
  0
BLOCK
  5
1014
100
AcDbEntity
  8
0
100
AcDbBlockBegin
  2
*D24
 70
     1
 10
0.0
 20
0.0
 30
0.0
  3
*D24
  1

  0
LINE
  5
1015
100
AcDbEntity
  8
0
  6
BYBLOCK
 62
     0
100
AcDbLine
 10
28.175315
 20
1855.531267
 30
0.0
 11
28.175315
 21
1898.381451
 31
0.0
  0
LINE
  5
1016
100
AcDbEntity
  8
0
  6
BYBLOCK
 62
     0
100
AcDbLine
 10
163.175315
 20
1856.989188
 30
0.0
 11
163.175315
 21
1898.381451
 31
0.0
  0
LINE
  5
1017
100
AcDbEntity
  8
0
  6
BYBLOCK
 62
     0
100
AcDbLine
 10
36.592823
 20
1894.172696
 30
0.0
 11
154.757806
 21
1894.172696
 31
0.0
  0
SOLID
  5
1018
100
AcDbEntity
  8
0
  6
BYBLOCK
 62
     0
100
AcDbTrace
 10
36.592823
 20
1895.575614
 30
0.0
 11
36.592823
 21
1892.769778
 31
0.0
 12
28.175315
 22
1894.172696
 32
0.0
 13
28.175315
 23
1894.172696
 33
0.0
  0
SOLID
  5
1019
100
AcDbEntity
  8
0
  6
BYBLOCK
 62
     0
100
AcDbTrace
 10
154.757806
 20
1895.575614
 30
0.0
 11
154.757806
 21
1892.769778
 31
0.0
 12
163.175315
 22
1894.172696
 32
0.0
 13
163.175315
 23
1894.172696
 33
0.0
  0
MTEXT
  5
101A
100
AcDbEntity
  8
0
  6
BYBLOCK
 62
     0
100
AcDbMText
 10
95.675315
 20
1906.277073
 30
0.0
 40
20.0
 41
0.0
 71
     5
 72
     1
  1
\A1;135
  0
POINT
  5
101B
100
AcDbEntity
  8
DEFPOINTS
  6
BYBLOCK
 62
     0
100
AcDbPoint
 10
28.175315
 20
1853.42689
 30
0.0
  0
POINT
  5
101C
100
AcDbEntity
  8
DEFPOINTS
  6
BYBLOCK
 62
     0
100
AcDbPoint
 10
163.175315
 20
1854.884811
 30
0.0
  0
POINT
  5
101D
100
AcDbEntity
  8
DEFPOINTS
  6
BYBLOCK
 62
     0
100
AcDbPoint
 10
163.175315
 20
1894.172696
 30
0.0
  0
ENDBLK
  5
101E
100
AcDbEntity
  8
0
100
AcDbBlockEnd
  0
BLOCK
  5
1029
100
AcDbEntity
  8
0
100
AcDbBlockBegin
  2
*D25
 70
     1
 10
0.0
 20
0.0
 30
0.0
  3
*D25
  1

  0
LINE
  5
102A
100
AcDbEntity
  8
0
  6
BYBLOCK
 62
     0
100
AcDbLine
 10
373.175315
 20
1854.073346
 30
0.0
 11
373.175315
 21
1898.381451
 31
0.0
  0
LINE
  5
102B
100
AcDbEntity
  8
0
  6
BYBLOCK
 62
     0
100
AcDbLine
 10
171.592823
 20
1894.172696
 30
0.0
 11
364.757806
 21
1894.172696
 31
0.0
  0
SOLID
  5
102C
100
AcDbEntity
  8
0
  6
BYBLOCK
 62
     0
100
AcDbTrace
 10
171.592823
 20
1895.575614
 30
0.0
 11
171.592823
 21
1892.769778
 31
0.0
 12
163.175315
 22
1894.172696
 32
0.0
 13
163.175315
 23
1894.172696
 33
0.0
  0
SOLID
  5
102D
100
AcDbEntity
  8
0
  6
BYBLOCK
 62
     0
100
AcDbTrace
 10
364.757806
 20
1895.575614
 30
0.0
 11
364.757806
 21
1892.769778
 31
0.0
 12
373.175315
 22
1894.172696
 32
0.0
 13
373.175315
 23
1894.172696
 33
0.0
  0
MTEXT
  5
102E
100
AcDbEntity
  8
0
  6
BYBLOCK
 62
     0
100
AcDbMText
 10
268.175315
 20
1906.277073
 30
0.0
 40
20.0
 41
0.0
 71
     5
 72
     1
  1
\A1;210
  0
POINT
  5
102F
100
AcDbEntity
  8
DEFPOINTS
  6
BYBLOCK
 62
     0
100
AcDbPoint
 10
163.175315
 20
1854.884811
 30
0.0
  0
POINT
  5
1030
100
AcDbEntity
  8
DEFPOINTS
  6
BYBLOCK
 62
     0
100
AcDbPoint
 10
373.175315
 20
1851.968969
 30
0.0
  0
POINT
  5
1031
100
AcDbEntity
  8
DEFPOINTS
  6
BYBLOCK
 62
     0
100
AcDbPoint
 10
373.175315
 20
1894.172696
 30
0.0
  0
ENDBLK
  5
1032
100
AcDbEntity
  8
0
100
AcDbBlockEnd
  0
BLOCK
  5
103D
100
AcDbEntity
  8
0
100
AcDbBlockBegin
  2
*D26
 70
     1
 10
0.0
 20
0.0
 30
0.0
  3
*D26
  1

  0
LINE
  5
103E
100
AcDbEntity
  8
0
  6
BYBLOCK
 62
     0
100
AcDbLine
 10
613.175315
 20
1853.987656
 30
0.0
 11
613.175315
 21
1898.381451
 31
0.0
  0
LINE
  5
103F
100
AcDbEntity
  8
0
  6
BYBLOCK
 62
     0
100
AcDbLine
 10
381.592823
 20
1894.172696
 30
0.0
 11
604.757806
 21
1894.172696
 31
0.0
  0
SOLID
  5
1040
100
AcDbEntity
  8
0
  6
BYBLOCK
 62
     0
100
AcDbTrace
 10
381.592823
 20
1895.575614
 30
0.0
 11
381.592823
 21
1892.769778
 31
0.0
 12
373.175315
 22
1894.172696
 32
0.0
 13
373.175315
 23
1894.172696
 33
0.0
  0
SOLID
  5
1041
100
AcDbEntity
  8
0
  6
BYBLOCK
 62
     0
100
AcDbTrace
 10
604.757806
 20
1895.575614
 30
0.0
 11
604.757806
 21
1892.769778
 31
0.0
 12
613.175315
 22
1894.172696
 32
0.0
 13
613.175315
 23
1894.172696
 33
0.0
  0
MTEXT
  5
1042
100
AcDbEntity
  8
0
  6
BYBLOCK
 62
     0
100
AcDbMText
 10
493.175315
 20
1906.277073
 30
0.0
 40
20.0
 41
0.0
 71
     5
 72
     1
  1
\A1;240
  0
POINT
  5
1043
100
AcDbEntity
  8
DEFPOINTS
  6
BYBLOCK
 62
     0
100
AcDbPoint
 10
373.175315
 20
1851.968969
 30
0.0
  0
POINT
  5
1044
100
AcDbEntity
  8
DEFPOINTS
  6
BYBLOCK
 62
     0
100
AcDbPoint
 10
613.175315
 20
1851.883279
 30
0.0
  0
POINT
  5
1045
100
AcDbEntity
  8
DEFPOINTS
  6
BYBLOCK
 62
     0
100
AcDbPoint
 10
613.175315
 20
1894.172696
 30
0.0
  0
ENDBLK
  5
1046
100
AcDbEntity
  8
0
100
AcDbBlockEnd
  0
BLOCK
  5
1051
100
AcDbEntity
  8
0
100
AcDbBlockBegin
  2
*D27
 70
     1
 10
0.0
 20
0.0
 30
0.0
  3
*D27
  1

  0
LINE
  5
1052
100
AcDbEntity
  8
0
  6
BYBLOCK
 62
     0
100
AcDbLine
 10
823.175315
 20
1853.987656
 30
0.0
 11
823.175315
 21
1898.381451
 31
0.0
  0
LINE
  5
1053
100
AcDbEntity
  8
0
  6
BYBLOCK
 62
     0
100
AcDbLine
 10
621.592823
 20
1894.172696
 30
0.0
 11
814.757806
 21
1894.172696
 31
0.0
  0
SOLID
  5
1054
100
AcDbEntity
  8
0
  6
BYBLOCK
 62
     0
100
AcDbTrace
 10
621.592823
 20
1895.575614
 30
0.0
 11
621.592823
 21
1892.769778
 31
0.0
 12
613.175315
 22
1894.172696
 32
0.0
 13
613.175315
 23
1894.172696
 33
0.0
  0
SOLID
  5
1055
100
AcDbEntity
  8
0
  6
BYBLOCK
 62
     0
100
AcDbTrace
 10
814.757806
 20
1895.575614
 30
0.0
 11
814.757806
 21
1892.769778
 31
0.0
 12
823.175315
 22
1894.172696
 32
0.0
 13
823.175315
 23
1894.172696
 33
0.0
  0
MTEXT
  5
1056
100
AcDbEntity
  8
0
  6
BYBLOCK
 62
     0
100
AcDbMText
 10
718.175315
 20
1906.277073
 30
0.0
 40
20.0
 41
0.0
 71
     5
 72
     1
  1
\A1;210
  0
POINT
  5
1057
100
AcDbEntity
  8
DEFPOINTS
  6
BYBLOCK
 62
     0
100
AcDbPoint
 10
613.175315
 20
1851.883279
 30
0.0
  0
POINT
  5
1058
100
AcDbEntity
  8
DEFPOINTS
  6
BYBLOCK
 62
     0
100
AcDbPoint
 10
823.175315
 20
1851.883279
 30
0.0
  0
POINT
  5
1059
100
AcDbEntity
  8
DEFPOINTS
  6
BYBLOCK
 62
     0
100
AcDbPoint
 10
823.175315
 20
1894.172696
 30
0.0
  0
ENDBLK
  5
105A
100
AcDbEntity
  8
0
100
AcDbBlockEnd
  0
BLOCK
  5
1065
100
AcDbEntity
  8
0
100
AcDbBlockBegin
  2
*D28
 70
     1
 10
0.0
 20
0.0
 30
0.0
  3
*D28
  1

  0
LINE
  5
1066
100
AcDbEntity
  8
0
  6
BYBLOCK
 62
     0
100
AcDbLine
 10
958.175315
 20
1855.854861
 30
0.0
 11
958.175315
 21
1898.381451
 31
0.0
  0
LINE
  5
1067
100
AcDbEntity
  8
0
  6
BYBLOCK
 62
     0
100
AcDbLine
 10
831.592823
 20
1894.172696
 30
0.0
 11
949.757806
 21
1894.172696
 31
0.0
  0
SOLID
  5
1068
100
AcDbEntity
  8
0
  6
BYBLOCK
 62
     0
100
AcDbTrace
 10
831.592823
 20
1895.575614
 30
0.0
 11
831.592823
 21
1892.769778
 31
0.0
 12
823.175315
 22
1894.172696
 32
0.0
 13
823.175315
 23
1894.172696
 33
0.0
  0
SOLID
  5
1069
100
AcDbEntity
  8
0
  6
BYBLOCK
 62
     0
100
AcDbTrace
 10
949.757806
 20
1895.575614
 30
0.0
 11
949.757806
 21
1892.769778
 31
0.0
 12
958.175315
 22
1894.172696
 32
0.0
 13
958.175315
 23
1894.172696
 33
0.0
  0
MTEXT
  5
106A
100
AcDbEntity
  8
0
  6
BYBLOCK
 62
     0
100
AcDbMText
 10
890.675315
 20
1906.277073
 30
0.0
 40
20.0
 41
0.0
 71
     5
 72
     1
  1
\A1;135
  0
POINT
  5
106B
100
AcDbEntity
  8
DEFPOINTS
  6
BYBLOCK
 62
     0
100
AcDbPoint
 10
823.175315
 20
1851.883279
 30
0.0
  0
POINT
  5
106C
100
AcDbEntity
  8
DEFPOINTS
  6
BYBLOCK
 62
     0
100
AcDbPoint
 10
958.175315
 20
1853.750484
 30
0.0
  0
POINT
  5
106D
100
AcDbEntity
  8
DEFPOINTS
  6
BYBLOCK
 62
     0
100
AcDbPoint
 10
958.175315
 20
1894.172696
 30
0.0
  0
ENDBLK
  5
106E
100
AcDbEntity
  8
0
100
AcDbBlockEnd
  0
BLOCK
  5
1092
100
AcDbEntity
  8
0
100
AcDbBlockBegin
  2
*D29
 70
     1
 10
0.0
 20
0.0
 30
0.0
  3
*D29
  1

  0
LINE
  5
1093
100
AcDbEntity
  8
0
  6
BYBLOCK
 62
     0
100
AcDbLine
 10
28.175315
 20
1857.943475
 30
0.0
 11
28.175315
 21
1956.49544
 31
0.0
  0
LINE
  5
1094
100
AcDbEntity
  8
0
  6
BYBLOCK
 62
     0
100
AcDbLine
 10
958.175315
 20
1857.943475
 30
0.0
 11
958.175315
 21
1956.49544
 31
0.0
  0
LINE
  5
1095
100
AcDbEntity
  8
0
  6
BYBLOCK
 62
     0
100
AcDbLine
 10
36.592823
 20
1952.286686
 30
0.0
 11
949.757806
 21
1952.286686
 31
0.0
  0
SOLID
  5
1096
100
AcDbEntity
  8
0
  6
BYBLOCK
 62
     0
100
AcDbTrace
 10
36.592823
 20
1953.689604
 30
0.0
 11
36.592823
 21
1950.883768
 31
0.0
 12
28.175315
 22
1952.286686
 32
0.0
 13
28.175315
 23
1952.286686
 33
0.0
  0
SOLID
  5
1097
100
AcDbEntity
  8
0
  6
BYBLOCK
 62
     0
100
AcDbTrace
 10
949.757806
 20
1953.689604
 30
0.0
 11
949.757806
 21
1950.883768
 31
0.0
 12
958.175315
 22
1952.286686
 32
0.0
 13
958.175315
 23
1952.286686
 33
0.0
  0
MTEXT
  5
1098
100
AcDbEntity
  8
0
  6
BYBLOCK
 62
     0
100
AcDbMText
 10
493.175315
 20
1964.391063
 30
0.0
 40
20.0
 41
0.0
 71
     5
 72
     1
  1
\A1;930
  0
POINT
  5
1099
100
AcDbEntity
  8
DEFPOINTS
  6
BYBLOCK
 62
     0
100
AcDbPoint
 10
28.175315
 20
1855.839098
 30
0.0
  0
POINT
  5
109A
100
AcDbEntity
  8
DEFPOINTS
  6
BYBLOCK
 62
     0
100
AcDbPoint
 10
958.175315
 20
1855.839098
 30
0.0
  0
POINT
  5
109B
100
AcDbEntity
  8
DEFPOINTS
  6
BYBLOCK
 62
     0
100
AcDbPoint
 10
958.175315
 20
1952.286686
 30
0.0
  0
ENDBLK
  5
109C
100
AcDbEntity
  8
0
100
AcDbBlockEnd
  0
BLOCK
  5
11AE
100
AcDbEntity
  8
0
100
AcDbBlockBegin
  2
*D30
 70
     1
 10
0.0
 20
0.0
 30
0.0
  3
*D30
  1

  0
LINE
  5
11AF
100
AcDbEntity
  8
0
  6
BYBLOCK
 62
     0
100
AcDbLine
 10
836.729353
 20
1002.87257
 30
0.0
 11
872.610203
 21
1002.87257
 31
0.0
  0
LINE
  5
11B0
100
AcDbEntity
  8
0
  6
BYBLOCK
 62
     0
100
AcDbLine
 10
825.279723
 20
942.87257
 30
0.0
 11
872.610203
 21
942.87257
 31
0.0
  0
LINE
  5
11B1
100
AcDbEntity
  8
0
  6
BYBLOCK
 62
     0
100
AcDbLine
 10
868.401448
 20
994.455062
 30
0.0
 11
868.401448
 21
951.290079
 31
0.0
  0
SOLID
  5
11B2
100
AcDbEntity
  8
0
  6
BYBLOCK
 62
     0
100
AcDbTrace
 10
866.99853
 20
994.455062
 30
0.0
 11
869.804366
 21
994.455062
 31
0.0
 12
868.401448
 22
1002.87257
 32
0.0
 13
868.401448
 23
1002.87257
 33
0.0
  0
SOLID
  5
11B3
100
AcDbEntity
  8
0
  6
BYBLOCK
 62
     0
100
AcDbTrace
 10
866.99853
 20
951.290079
 30
0.0
 11
869.804366
 21
951.290079
 31
0.0
 12
868.401448
 22
942.87257
 32
0.0
 13
868.401448
 23
942.87257
 33
0.0
  0
MTEXT
  5
11B4
100
AcDbEntity
  8
0
  6
BYBLOCK
 62
     0
100
AcDbMText
 10
856.297071
 20
972.87257
 30
0.0
 40
20.0
 41
0.0
 71
     5
 72
     1
  1
\A1;60
 11
0.0
 21
1.0
 31
0.0
  0
POINT
  5
11B5
100
AcDbEntity
  8
DEFPOINTS
  6
BYBLOCK
 62
     0
100
AcDbPoint
 10
834.624976
 20
1002.87257
 30
0.0
  0
POINT
  5
11B6
100
AcDbEntity
  8
DEFPOINTS
  6
BYBLOCK
 62
     0
100
AcDbPoint
 10
823.175346
 20
942.87257
 30
0.0
  0
POINT
  5
11B7
100
AcDbEntity
  8
DEFPOINTS
  6
BYBLOCK
 62
     0
100
AcDbPoint
 10
868.401448
 20
942.87257
 30
0.0
  0
ENDBLK
  5
11B8
100
AcDbEntity
  8
0
100
AcDbBlockEnd
  0
BLOCK
  5
11C3
100
AcDbEntity
  8
0
100
AcDbBlockBegin
  2
A$C12281314
 70
     0
 10
0.0
 20
0.0
 30
0.0
  3
A$C12281314
  1

  0
MTEXT
  5
11C1
102
{ACAD_REACTORS
330
11C2
102
}
100
AcDbEntity
  8
0
100
AcDbMText
 10
47.066861
 20
54.265579
 30
0.0
 40
20.0
 41
0.0
 71
     4
 72
     1
  1
\A1;\fMS UI Gothic|b0|i0|c128|p50;排油バルブ　３２A
  0
LEADER
  5
11C2
100
AcDbEntity
  8
0
100
AcDbLeader
  3
STANDARD_WS
 73
     0
 74
     0
 75
     1
 40
27.272727
 41
204.090909
 76
     3
 10
-0.000005
 20
-0.000003
 30
0.0
 10
36.544975
 20
38.524838
 30
0.0
 10
44.962484
 20
38.524838
 30
0.0
 77
   256
340
11C1
  0
ENDBLK
  5
11C4
100
AcDbEntity
  8
0
100
AcDbBlockEnd
  0
BLOCK
  5
11D0
100
AcDbEntity
  8
0
100
AcDbBlockBegin
  2
A$C4DB77D8D
 70
     0
 10
0.0
 20
0.0
 30
0.0
  3
A$C4DB77D8D
  1

  0
LINE
  5
11CA
100
AcDbEntity
  8
0
100
AcDbLine
 10
0.000002
 20
49.4285
 30
0.0
 11
0.000002
 21
25.53571
 31
0.0
  0
ARC
  5
11CB
100
AcDbEntity
  8
0
100
AcDbCircle
 10
4.720433
 20
6.195308
 30
0.0
 40
43.921086
100
AcDbArc
 50
10.393885
 51
79.606115
  0
ARC
  5
11CC
100
AcDbEntity
  8
0
100
AcDbCircle
 10
-2.654815
 20
-1.386464
 30
0.0
 40
27.052754
100
AcDbArc
 50
2.937713
 51
84.368225
  0
LINE
  5
11CD
100
AcDbEntity
  8
0
100
AcDbLine
 10
24.362388
 20
-0.000002
 30
0.0
 11
47.953624
 21
-0.000002
 31
0.0
  0
LINE
  5
11CE
100
AcDbEntity
  8
0
100
AcDbLine
 10
47.953624
 20
13.758466
 30
0.0
 11
47.953624
 21
-0.000002
 31
0.0
  0
LINE
  5
11CF
100
AcDbEntity
  8
0
100
AcDbLine
 10
0.000002
 20
49.4285
 30
0.0
 11
12.283591
 21
49.4285
 31
0.0
  0
ENDBLK
  5
11D1
100
AcDbEntity
  8
0
100
AcDbBlockEnd
  0
BLOCK
  5
11D9
100
AcDbEntity
  8
0
100
AcDbBlockBegin
  2
A$C46FA3754
 70
     0
 10
0.0
 20
0.0
 30
0.0
  3
A$C46FA3754
  1

  0
INSERT
  5
11D8
100
AcDbEntity
  8
0
100
AcDbBlockReference
  2
A$C4DB77D8D
 10
47.95362
 20
49.428502
 30
0.0
 50
180.0
  0
ENDBLK
  5
11DA
100
AcDbEntity
  8
0
100
AcDbBlockEnd
  0
BLOCK
  5
11E8
100
AcDbEntity
  8
0
100
AcDbBlockBegin
  2
A$C3A0E4978
 70
     0
 10
0.0
 20
0.0
 30
0.0
  3
A$C3A0E4978
  1

  0
LINE
  5
11E4
100
AcDbEntity
  8
0
100
AcDbLine
 10
56.634021
 20
38.317009
 30
0.0
 11
76.634021
 21
38.317009
 31
0.0
  0
ARC
  5
11E5
100
AcDbEntity
  8
0
100
AcDbCircle
 10
38.31701
 20
38.317009
 30
0.0
 40
38.317011
100
AcDbArc
 50
180.0
 51
0.0
  0
LINE
  5
11E6
100
AcDbEntity
  8
0
100
AcDbLine
 10
-0.000001
 20
38.317009
 30
0.0
 11
19.999999
 21
38.317009
 31
0.0
  0
ARC
  5
11E7
100
AcDbEntity
  8
0
100
AcDbCircle
 10
38.31701
 20
38.317009
 30
0.0
 40
18.317011
100
AcDbArc
 50
180.0
 51
0.0
  0
ENDBLK
  5
11E9
100
AcDbEntity
  8
0
100
AcDbBlockEnd
  0
BLOCK
  5
1203
100
AcDbEntity
  8
0
100
AcDbBlockBegin
  2
A$C5BA30E5C
 70
     0
 10
0.0
 20
0.0
 30
0.0
  3
A$C5BA30E5C
  1

  0
ARC
  5
11FF
100
AcDbEntity
  8
0
100
AcDbCircle
 10
32.403988
 20
0.0
 30
0.0
 40
32.403993
100
AcDbArc
 50
90.0
 51
180.0
  0
ARC
  5
1200
100
AcDbEntity
  8
0
100
AcDbCircle
 10
32.403988
 20
0.0
 30
0.0
 40
6.403993
100
AcDbArc
 50
90.0
 51
180.0
  0
LINE
  5
1201
100
AcDbEntity
  8
0
100
AcDbLine
 10
-0.000006
 20
0.0
 30
0.0
 11
25.999994
 21
0.0
 31
0.0
  0
LINE
  5
1202
100
AcDbEntity
  8
0
100
AcDbLine
 10
32.403988
 20
6.403993
 30
0.0
 11
32.403988
 21
32.403993
 31
0.0
  0
ENDBLK
  5
1204
100
AcDbEntity
  8
0
100
AcDbBlockEnd
  0
BLOCK
  5
1281
100
AcDbEntity
  8
0
100
AcDbBlockBegin
  2
*D36
 70
     1
 10
0.0
 20
0.0
 30
0.0
  3
*D36
  1

  0
LINE
  5
1282
100
AcDbEntity
  8
0
  6
BYBLOCK
 62
     0
100
AcDbLine
 10
28.175346
 20
966.228894
 30
0.0
 11
28.175346
 21
1080.817853
 31
0.0
  0
LINE
  5
1283
100
AcDbEntity
  8
0
  6
BYBLOCK
 62
     0
100
AcDbLine
 10
958.175346
 20
963.268777
 30
0.0
 11
958.175346
 21
1080.817853
 31
0.0
  0
LINE
  5
1284
100
AcDbEntity
  8
0
  6
BYBLOCK
 62
     0
100
AcDbLine
 10
36.592854
 20
1076.609099
 30
0.0
 11
949.757837
 21
1076.609099
 31
0.0
  0
SOLID
  5
1285
100
AcDbEntity
  8
0
  6
BYBLOCK
 62
     0
100
AcDbTrace
 10
36.592854
 20
1078.012017
 30
0.0
 11
36.592854
 21
1075.206181
 31
0.0
 12
28.175346
 22
1076.609099
 32
0.0
 13
28.175346
 23
1076.609099
 33
0.0
  0
SOLID
  5
1286
100
AcDbEntity
  8
0
  6
BYBLOCK
 62
     0
100
AcDbTrace
 10
949.757837
 20
1078.012017
 30
0.0
 11
949.757837
 21
1075.206181
 31
0.0
 12
958.175346
 22
1076.609099
 32
0.0
 13
958.175346
 23
1076.609099
 33
0.0
  0
MTEXT
  5
1287
100
AcDbEntity
  8
0
  6
BYBLOCK
 62
     0
100
AcDbMText
 10
493.175346
 20
1088.713476
 30
0.0
 40
20.0
 41
0.0
 71
     5
 72
     1
  1
\A1;930
  0
POINT
  5
1288
100
AcDbEntity
  8
DEFPOINTS
  6
BYBLOCK
 62
     0
100
AcDbPoint
 10
28.175346
 20
964.124517
 30
0.0
  0
POINT
  5
1289
100
AcDbEntity
  8
DEFPOINTS
  6
BYBLOCK
 62
     0
100
AcDbPoint
 10
958.175346
 20
961.1644
 30
0.0
  0
POINT
  5
128A
100
AcDbEntity
  8
DEFPOINTS
  6
BYBLOCK
 62
     0
100
AcDbPoint
 10
958.175346
 20
1076.609099
 30
0.0
  0
ENDBLK
  5
128B
100
AcDbEntity
  8
0
100
AcDbBlockEnd
  0
BLOCK
  5
1290
100
AcDbEntity
  8
0
100
AcDbBlockBegin
  2
A$C7B362385
 70
     0
 10
0.0
 20
0.0
 30
0.0
  3
A$C7B362385
  1

  0
MTEXT
  5
128E
102
{ACAD_REACTORS
330
128F
102
}
100
AcDbEntity
  8
0
100
AcDbMText
 10
101.256823
 20
14.888466
 30
0.0
 40
20.0
 41
0.0
 71
     6
 72
     1
  1
\A1;\fMS UI Gothic|b0|i0|c128|p50;ガスコック
  0
LEADER
  5
128F
100
AcDbEntity
  8
0
100
AcDbLeader
  3
STANDARD_WS
 73
     0
 75
     1
 40
25.568182
 41
99.204545
 76
     3
 10
256.143539
 20
48.418586
 30
0.0
 10
111.778709
 20
-0.000002
 30
0.0
 10
103.3612
 20
-0.000002
 30
0.0
 77
   256
340
128E
  0
ENDBLK
  5
1291
100
AcDbEntity
  8
0
100
AcDbBlockEnd
  0
BLOCK
  5
12BB
100
AcDbEntity
  8
0
100
AcDbBlockBegin
  2
*D38
 70
     1
 10
0.0
 20
0.0
 30
0.0
  3
*D38
  1

  0
LINE
  5
12BC
100
AcDbEntity
  8
0
  6
BYBLOCK
 62
     0
100
AcDbLine
 10
60.675315
 20
1294.397696
 30
0.0
 11
60.675315
 21
1367.794206
 31
0.0
  0
LINE
  5
12BD
100
AcDbEntity
  8
0
  6
BYBLOCK
 62
     0
100
AcDbLine
 10
925.675315
 20
1294.397696
 30
0.0
 11
925.675315
 21
1367.794206
 31
0.0
  0
LINE
  5
12BE
100
AcDbEntity
  8
0
  6
BYBLOCK
 62
     0
100
AcDbLine
 10
69.092823
 20
1363.585451
 30
0.0
 11
917.257806
 21
1363.585451
 31
0.0
  0
SOLID
  5
12BF
100
AcDbEntity
  8
0
  6
BYBLOCK
 62
     0
100
AcDbTrace
 10
69.092823
 20
1364.988369
 30
0.0
 11
69.092823
 21
1362.182533
 31
0.0
 12
60.675315
 22
1363.585451
 32
0.0
 13
60.675315
 23
1363.585451
 33
0.0
  0
SOLID
  5
12C0
100
AcDbEntity
  8
0
  6
BYBLOCK
 62
     0
100
AcDbTrace
 10
917.257806
 20
1364.988369
 30
0.0
 11
917.257806
 21
1362.182533
 31
0.0
 12
925.675315
 22
1363.585451
 32
0.0
 13
925.675315
 23
1363.585451
 33
0.0
  0
MTEXT
  5
12C1
100
AcDbEntity
  8
0
  6
BYBLOCK
 62
     0
100
AcDbMText
 10
493.175315
 20
1375.689829
 30
0.0
 40
20.0
 41
0.0
 71
     5
 72
     1
  1
\A1;860
  0
POINT
  5
12C2
100
AcDbEntity
  8
DEFPOINTS
  6
BYBLOCK
 62
     0
100
AcDbPoint
 10
60.675315
 20
1292.293319
 30
0.0
  0
POINT
  5
12C3
100
AcDbEntity
  8
DEFPOINTS
  6
BYBLOCK
 62
     0
100
AcDbPoint
 10
925.675315
 20
1292.293319
 30
0.0
  0
POINT
  5
12C4
100
AcDbEntity
  8
DEFPOINTS
  6
BYBLOCK
 62
     0
100
AcDbPoint
 10
925.675315
 20
1363.585451
 30
0.0
  0
ENDBLK
  5
12C5
100
AcDbEntity
  8
0
100
AcDbBlockEnd
  0
BLOCK
  5
12D0
100
AcDbEntity
  8
0
100
AcDbBlockBegin
  2
A$C2BBA61E4
 70
     0
 10
0.0
 20
0.0
 30
0.0
  3
A$C2BBA61E4
  1

  0
INSERT
  5
12CF
100
AcDbEntity
  8
0
100
AcDbBlockReference
  2
A$C7BAC38FA
 10
0.000002
 20
-0.000002
 30
0.0
  0
ENDBLK
  5
12D1
100
AcDbEntity
  8
0
100
AcDbBlockEnd
  0
BLOCK
  5
12E4
100
AcDbEntity
  8
0
100
AcDbBlockBegin
  2
A$C431E75CC
 70
     0
 10
0.0
 20
0.0
 30
0.0
  3
A$C431E75CC
  1

  0
LINE
  5
12E0
100
AcDbEntity
  8
0
100
AcDbLine
 10
0.0
 20
26.206522
 30
0.0
 11
0.0
 21
-0.000002
 31
0.0
  0
LINE
  5
12E1
100
AcDbEntity
  8
0
100
AcDbLine
 10
40.511498
 20
26.206522
 30
0.0
 11
40.511498
 21
-0.000002
 31
0.0
  0
LINE
  5
12E2
100
AcDbEntity
  8
0
100
AcDbLine
 10
0.0
 20
-0.000002
 30
0.0
 11
40.511498
 21
-0.000002
 31
0.0
  0
LINE
  5
12E3
100
AcDbEntity
  8
0
100
AcDbLine
 10
40.511498
 20
26.206522
 30
0.0
 11
0.0
 21
26.206522
 31
0.0
  0
ENDBLK
  5
12E5
100
AcDbEntity
  8
0
100
AcDbBlockEnd
  0
ENDSEC
  0
SECTION
  2
ENTITIES
  0
LINE
  5
3C
100
AcDbEntity
  8
0
100
AcDbLine
 10
28.175315
 20
1842.293319
 30
0.0
 11
28.175315
 21
1252.293319
 31
0.0
  0
LINE
  5
3D
100
AcDbEntity
  8
0
100
AcDbLine
 10
28.175346
 20
842.87257
 30
0.0
 11
508.175346
 21
842.87257
 31
0.0
  0
LINE
  5
3E
100
AcDbEntity
  8
0
100
AcDbLine
 10
28.175346
 20
942.87257
 30
0.0
 11
508.175346
 21
942.87257
 31
0.0
  0
LINE
  5
40
100
AcDbEntity
  8
0
100
AcDbLine
 10
1555.828945
 20
842.87257
 30
0.0
 11
1555.828945
 21
817.87257
 31
0.0
  0
LINE
  5
41
100
AcDbEntity
  8
0
100
AcDbLine
 10
2145.828945
 20
942.87257
 30
0.0
 11
2145.828945
 21
817.87257
 31
0.0
  0
LINE
  5
42
100
AcDbEntity
  8
0
100
AcDbLine
 10
28.175315
 20
1252.293319
 30
0.0
 11
508.175315
 21
1252.293319
 31
0.0
  0
LINE
  5
43
100
AcDbEntity
  8
0
100
AcDbLine
 10
28.175315
 20
1842.293319
 30
0.0
 11
508.175315
 21
1842.293319
 31
0.0
  0
LINE
  5
45
100
AcDbEntity
  8
0
100
AcDbLine
 10
28.175346
 20
842.87257
 30
0.0
 11
28.175346
 21
812.87257
 31
0.0
  0
LINE
  5
46
100
AcDbEntity
  8
0
100
AcDbLine
 10
2055.828945
 20
942.87257
 30
0.0
 11
2145.828945
 21
942.87257
 31
0.0
  0
LINE
  5
47
100
AcDbEntity
  8
0
100
AcDbLine
 10
1555.828945
 20
842.87257
 30
0.0
 11
2145.828945
 21
842.87257
 31
0.0
  0
LINE
  5
4B
100
AcDbEntity
  8
0
100
AcDbLine
 10
28.175346
 20
812.87257
 30
0.0
 11
508.175346
 21
812.87257
 31
0.0
  0
LINE
  5
4C
100
AcDbEntity
  8
0
100
AcDbLine
 10
1555.828945
 20
817.87257
 30
0.0
 11
2145.828945
 21
817.87257
 31
0.0
  0
LINE
  5
4D
100
AcDbEntity
  8
0
100
AcDbLine
 10
78.175346
 20
812.87257
 30
0.0
 11
78.175346
 21
82.87257
 31
0.0
  0
LINE
  5
4F
100
AcDbEntity
  8
0
100
AcDbLine
 10
28.175346
 20
942.87257
 30
0.0
 11
28.175346
 21
842.87257
 31
0.0
  0
LINE
  5
9F
100
AcDbEntity
  8
0
100
AcDbLine
 10
28.175315
 20
1752.293319
 30
0.0
 11
508.175315
 21
1752.293319
 31
0.0
  0
LINE
  5
B9
100
AcDbEntity
  8
0
100
AcDbLine
 10
1522.080835
 20
42.87257
 30
0.0
 11
2235.822873
 21
42.87257
 31
0.0
  0
LINE
  5
BA
100
AcDbEntity
  8
0
100
AcDbLine
 10
1565.828945
 20
817.87257
 30
0.0
 11
1565.828945
 21
82.87257
 31
0.0
  0
LINE
  5
10C
100
AcDbEntity
  8
0
100
AcDbLine
 10
2055.828945
 20
942.87257
 30
0.0
 11
2055.828945
 21
842.87257
 31
0.0
  0
LINE
  5
15D
100
AcDbEntity
  8
0
100
AcDbLine
 10
2140.828945
 20
817.87257
 30
0.0
 11
2140.828945
 21
82.87257
 31
0.0
  0
ARC
  5
160
100
AcDbEntity
  8
0
  6
HIDDEN2
100
AcDbCircle
 10
1666.785407
 20
512.994726
 30
0.0
 40
21.0
100
AcDbArc
 50
90.0
 51
270.0
  0
LINE
  5
161
100
AcDbEntity
  8
0
  6
HIDDEN2
100
AcDbLine
 10
1666.785407
 20
533.994726
 30
0.0
 11
1800.828945
 21
533.994726
 31
0.0
  0
LINE
  5
163
100
AcDbEntity
  8
0
  6
HIDDEN2
100
AcDbLine
 10
1666.785407
 20
491.994726
 30
0.0
 11
1800.828945
 21
491.994726
 31
0.0
  0
LINE
  5
164
100
AcDbEntity
  8
0
  6
HIDDEN2
100
AcDbLine
 10
1666.785407
 20
533.994726
 30
0.0
 11
1634.709561
 21
525.279706
 31
0.0
  0
LINE
  5
166
100
AcDbEntity
  8
0
  6
HIDDEN2
100
AcDbLine
 10
1677.797593
 20
493.464098
 30
0.0
 11
1634.499377
 21
484.749079
 31
0.0
  0
LINE
  5
167
100
AcDbEntity
  8
0
  6
HIDDEN2
100
AcDbLine
 10
1692.410466
 20
533.994726
 30
0.0
 11
1692.410466
 21
491.994726
 31
0.0
  0
CIRCLE
  5
16F
100
AcDbEntity
  8
0
100
AcDbCircle
 10
495.542695
 20
305.551953
 30
0.0
 40
25.0
  0
CIRCLE
  5
170
100
AcDbEntity
  8
0
100
AcDbCircle
 10
495.542695
 20
305.551953
 30
0.0
 40
21.0
  0
INSERT
  5
19A
100
AcDbEntity
  8
0
100
AcDbBlockReference
  2
A$C3D4A0DE5
 10
1670.634986
 20
275.98591
 30
0.0
  0
INSERT
  5
19B
100
AcDbEntity
  8
0
100
AcDbBlockReference
  2
A$C3D4A0DE5
 10
1504.754611
 20
480.080144
 30
0.0
  0
INSERT
  5
1BA
100
AcDbEntity
  8
0
100
AcDbBlockReference
  2
A$C061D45EC
 10
405.206459
 20
332.84289
 30
0.0
  0
LINE
  5
1C8
100
AcDbEntity
  8
0
100
AcDbLine
 10
1462.546431
 20
1805.25039
 30
0.0
 11
2163.263294
 21
1805.25039
 31
0.0
  0
LINE
  5
1CB
100
AcDbEntity
  8
0
100
AcDbLine
 10
1462.546431
 20
1755.25039
 30
0.0
 11
2163.263294
 21
1755.25039
 31
0.0
  0
LINE
  5
1CC
100
AcDbEntity
  8
0
100
AcDbLine
 10
1462.546431
 20
1705.25039
 30
0.0
 11
2163.263294
 21
1705.25039
 31
0.0
  0
LINE
  5
1CD
100
AcDbEntity
  8
0
100
AcDbLine
 10
1462.546431
 20
1655.25039
 30
0.0
 11
2163.263294
 21
1655.25039
 31
0.0
  0
LINE
  5
1CE
100
AcDbEntity
  8
0
100
AcDbLine
 10
1462.546431
 20
1605.25039
 30
0.0
 11
2163.263294
 21
1605.25039
 31
0.0
  0
LINE
  5
1CF
100
AcDbEntity
  8
0
100
AcDbLine
 10
1462.546431
 20
1555.25039
 30
0.0
 11
2163.263294
 21
1555.25039
 31
0.0
  0
LINE
  5
1D0
100
AcDbEntity
  8
0
100
AcDbLine
 10
1462.546431
 20
1505.25039
 30
0.0
 11
2163.263294
 21
1505.25039
 31
0.0
  0
LINE
  5
1D1
100
AcDbEntity
  8
0
100
AcDbLine
 10
1462.546431
 20
1455.25039
 30
0.0
 11
2163.263294
 21
1455.25039
 31
0.0
  0
LINE
  5
1D2
100
AcDbEntity
  8
0
100
AcDbLine
 10
1462.546431
 20
1405.25039
 30
0.0
 11
2163.263294
 21
1405.25039
 31
0.0
  0
LINE
  5
1D4
100
AcDbEntity
  8
0
100
AcDbLine
 10
1462.546431
 20
1805.25039
 30
0.0
 11
1462.546431
 21
1405.25039
 31
0.0
  0
DIMENSION
  5
7E9
100
AcDbEntity
  8
0
  6
DASHED2
100
AcDbDimension
  2
*D3
 10
1151.285829
 20
42.87257
 30
0.0
 11
1139.181451
 21
492.87257
 31
0.0
 12
269.460829
 22
0.0
 32
0.0
 70
    32
  3
STANDARD_WS
100
AcDbAlignedDimension
 13
971.612587
 23
942.87257
 33
0.0
 14
1073.217397
 24
42.87257
 34
0.0
 50
90.0
100
AcDbRotatedDimension
  0
LEADER
  5
87B
100
AcDbEntity
  8
0
100
AcDbLeader
  3
STANDARD_WS
 73
     0
 74
     0
 75
     1
 40
27.272727
 41
204.090909
 76
     3
 10
496.286288
 20
291.37931
 30
0.0
 10
452.018197
 20
188.136918
 30
0.0
 10
460.435705
 20
188.136918
 30
0.0
 77
   256
340
87C
213
-3.854215968480104
223
0.0
233
0.0
  0
MTEXT
  5
87C
102
{ACAD_REACTORS
330
87B
102
}
100
AcDbEntity
  8
0
100
AcDbMText
 10
466.394298
 20
203.877658
 30
0.0
 40
20.0
 41
0.0
 71
     4
 72
     1
  1
\A1;\fMS UI Gothic|b0|i0|c128|p50;排水バルブ　４０A
  0
MTEXT
  5
884
100
AcDbEntity
  8
0
100
AcDbMText
 10
1853.775898
 20
560.151295
 30
0.0
 40
20.0
 41
0.0
 71
     4
 72
     1
  1
\A1;\fMS UI Gothic|b0|i0|c128|p50;空冷管
  0
MTEXT
  5
8A5
100
AcDbEntity
  8
0
100
AcDbMText
 10
1477.374699
 20
1700.553212
 30
0.0
 40
30.0
 41
0.0
 71
     1
 72
     5
  1
\fMS UI Gothic|b0|i0|c128|p50;油槽寸法
  0
MTEXT
  5
8A7
100
AcDbEntity
  8
0
100
AcDbMText
 10
1474.580573
 20
1601.904346
 30
0.0
 40
30.0
 41
0.0
 71
     1
 72
     5
  1
\fMS UI Gothic|b0|i0|c128|p50;制御範囲
  0
MTEXT
  5
8A8
100
AcDbEntity
  8
0
100
AcDbMText
 10
1474.580573
 20
1546.99601
 30
0.0
 40
30.0
 41
0.0
 71
     1
 72
     5
  1
\fMS UI Gothic|b0|i0|c128|p50;制御方法
  0
MTEXT
  5
8AD
100
AcDbEntity
  8
0
100
AcDbMText
 10
1479.237449
 20
1802.924683
 30
0.0
 40
30.0
 41
1.533
 71
     1
 72
     5
  1
\fMS UI Gothic|b0|i0|c128|p50;型　　　式
  0
MTEXT
  5
8AE
100
AcDbEntity
  8
0
100
AcDbMText
 10
1479.237449
 20
1748.016353
 30
0.0
 40
30.0
 41
0.0
 71
     1
 72
     5
  1
\fMS UI Gothic|b0|i0|c128|p50;寸　　　法
  0
MTEXT
  5
8AF
100
AcDbEntity
  8
0
100
AcDbMText
 10
1477.374699
 20
1649.36748
 30
0.0
 40
30.0
 41
0.0
 71
     1
 72
     5
  1
\fMS UI Gothic|b0|i0|c128|p50;油　　　量
  0
MTEXT
  5
8B0
100
AcDbEntity
  8
0
100
AcDbMText
 10
1474.580573
 20
1449.277789
 30
0.0
 40
30.0
 41
1.533
 71
     1
 72
     5
  1
\fMS UI Gothic|b0|i0|c128|p50;重　　　量
  0
LINE
  5
8B2
100
AcDbEntity
  8
0
100
AcDbLine
 10
1662.546431
 20
1805.25039
 30
0.0
 11
1662.546431
 21
1405.25039
 31
0.0
  0
MTEXT
  5
8B4
100
AcDbEntity
  8
0
100
AcDbMText
 10
1689.207514
 20
1797.340787
 30
0.0
 40
30.0
 41
1.6564
 71
     1
 72
     5
  1
\fMS UI Gothic|b0|i0|c128|p50;ST-８０型
  0
MTEXT
  5
8B5
100
AcDbEntity
  8
0
100
AcDbMText
 10
1689.207514
 20
1742.432451
 30
0.0
 40
30.0
 41
0.0
 71
     1
 72
     5
  1
\fMS UI Gothic|b0|i0|c128|p50;W９３０×D５９０×H８００
  0
MTEXT
  5
8B6
100
AcDbEntity
  8
0
100
AcDbMText
 10
1687.551129
 20
1696.830615
 30
0.0
 40
30.0
 41
1.6564
 71
     1
 72
     5
  1
\fMS UI Gothic|b0|i0|c128|p50;W８６０×D４３０
  0
MTEXT
  5
8B7
100
AcDbEntity
  8
0
100
AcDbMText
 10
1687.551129
 20
1644.71423
 30
0.0
 40
30.0
 41
0.0
 71
     1
 72
     5
  1
\fMS UI Gothic|b0|i0|c128|p50;５０L
  0
MTEXT
  5
8B8
100
AcDbEntity
  8
0
100
AcDbMText
 10
1687.551129
 20
1596.320443
 30
0.0
 40
30.0
 41
1.6564
 71
     1
 72
     5
  1
\fMS UI Gothic|b0|i0|c128|p50;
  0
MTEXT
  5
8B9
100
AcDbEntity
  8
0
100
AcDbMText
 10
1685.894752
 20
1549.787961
 30
0.0
 40
30.0
 41
265.020818
 71
     1
 72
     5
  1
\fMS UI Gothic|b0|i0|c128|p50;比例制御方式
  0
MTEXT
  5
8BB
100
AcDbEntity
  8
0
100
AcDbMText
 10
1685.894752
 20
1445.555191
 30
0.0
 40
30.0
 41
0.0
 71
     1
 72
     5
  1
\fMS UI Gothic|b0|i0|c128|p50;８０Kg
  0
LINE
  5
8BC
100
AcDbEntity
  8
0
100
AcDbLine
 10
2163.263294
 20
1805.25039
 30
0.0
 11
2163.263294
 21
1405.25039
 31
0.0
  0
LWPOLYLINE
  5
8BD
100
AcDbEntity
  8
0
100
AcDbPolyline
 90
        4
 70
     1
 43
0.0
 10
-473.980063
 20
2100.803126
 10
2716.199534
 20
2100.803126
 10
2716.199534
 20
-271.990411
 10
-473.980063
 20
-271.990411
  0
LWPOLYLINE
  5
8BE
100
AcDbEntity
  8
0
100
AcDbPolyline
 90
        4
 70
     1
 43
0.0
 10
1128.860515
 20
-124.782383
 10
2703.656705
 20
-124.782383
 10
2703.656705
 20
-256.146895
 10
1128.860515
 20
-256.146895
  0
MTEXT
  5
8C0
100
AcDbEntity
  8
0
100
AcDbMText
 10
1177.396943
 20
-159.840523
 30
0.0
 40
50.0
 41
0.0
 71
     1
 72
     5
  1
\fMS UI Gothic|b0|i0|c128|p50;ウォーターフライヤー株式会社
  0
LINE
  5
8C1
100
AcDbEntity
  8
0
100
AcDbLine
 10
2065.499509
 20
-124.800801
 30
0.0
 11
2065.499509
 21
-256.126581
 31
0.0
  0
LINE
  5
8C5
100
AcDbEntity
  8
0
100
AcDbLine
 10
2145.499509
 20
-124.800801
 30
0.0
 11
2145.499509
 21
-256.126581
 31
0.0
  0
MTEXT
  5
8C6
100
AcDbEntity
  8
0
100
AcDbMText
 10
2089.259136
 20
-161.867547
 30
0.0
 40
20.0
 41
12.192542
 71
     1
 72
     5
  1
\fMS UI Gothic|b0|i0|c128|p50;型式
  0
MTEXT
  5
8C7
100
AcDbEntity
  8
0
100
AcDbMText
 10
2228.595446
 20
-163.399296
 30
0.0
 40
50.0
 41
423.15674
 71
     1
 72
     5
  1
\fMS UI Gothic|b0|i0|c128|p50;ST-８０型
  0
DIMENSION
  5
963
100
AcDbEntity
  8
0
  6
DASHED2
100
AcDbDimension
  2
*D4
 10
1087.74212
 20
1252.293319
 30
0.0
 11
1087.74212
 21
1630.961067
 31
0.0
 70
   160
  3
STANDARD_WS
100
AcDbAlignedDimension
 13
972.042337
 23
1842.293319
 33
0.0
 14
984.229903
 24
1252.293319
 34
0.0
 50
90.0
100
AcDbRotatedDimension
  0
LINE
  5
964
100
AcDbEntity
  8
0
100
AcDbLine
 10
60.675315
 20
1722.293319
 30
0.0
 11
510.675315
 21
1722.293319
 31
0.0
  0
LINE
  5
965
100
AcDbEntity
  8
0
100
AcDbLine
 10
60.675315
 20
1292.293319
 30
0.0
 11
510.675315
 21
1292.293319
 31
0.0
  0
LINE
  5
966
100
AcDbEntity
  8
0
100
AcDbLine
 10
60.675315
 20
1722.293319
 30
0.0
 11
60.675315
 21
1292.293319
 31
0.0
  0
LINE
  5
96C
100
AcDbEntity
  8
0
100
AcDbLine
 10
60.675315
 20
1457.293319
 30
0.0
 11
925.675315
 21
1457.293319
 31
0.0
  0
LINE
  5
96E
100
AcDbEntity
  8
0
100
AcDbLine
 10
303.175315
 20
1722.293319
 30
0.0
 11
303.175315
 21
1457.293319
 31
0.0
  0
LINE
  5
96F
100
AcDbEntity
  8
0
100
AcDbLine
 10
233.175315
 20
1722.293319
 30
0.0
 11
233.175315
 21
1457.293319
 31
0.0
  0
LINE
  5
970
100
AcDbEntity
  8
0
100
AcDbLine
 10
373.175315
 20
1722.293319
 30
0.0
 11
373.175315
 21
1457.293319
 31
0.0
  0
LINE
  5
971
100
AcDbEntity
  8
0
100
AcDbLine
 10
163.175315
 20
1722.293319
 30
0.0
 11
163.175315
 21
1457.293319
 31
0.0
  0
LINE
  5
972
100
AcDbEntity
  8
0
100
AcDbLine
 10
393.175315
 20
1722.293319
 30
0.0
 11
393.175315
 21
1457.293319
 31
0.0
  0
LINE
  5
973
100
AcDbEntity
  8
0
100
AcDbLine
 10
143.175315
 20
1722.293319
 30
0.0
 11
143.175315
 21
1457.293319
 31
0.0
  0
LINE
  5
974
100
AcDbEntity
  8
0
100
AcDbLine
 10
453.175315
 20
1722.293319
 30
0.0
 11
453.175315
 21
1457.293319
 31
0.0
  0
LINE
  5
975
100
AcDbEntity
  8
0
100
AcDbLine
 10
83.175315
 20
1722.293319
 30
0.0
 11
83.175315
 21
1457.293319
 31
0.0
  0
LINE
  5
976
100
AcDbEntity
  8
0
100
AcDbLine
 10
163.175315
 20
1825.293319
 30
0.0
 11
373.175315
 21
1825.293319
 31
0.0
  0
LINE
  5
977
100
AcDbEntity
  8
0
100
AcDbLine
 10
163.175315
 20
1768.293319
 30
0.0
 11
373.175315
 21
1768.293319
 31
0.0
  0
LINE
  5
978
100
AcDbEntity
  8
0
100
AcDbLine
 10
163.175315
 20
1825.293319
 30
0.0
 11
163.175315
 21
1768.293319
 31
0.0
  0
LINE
  5
979
100
AcDbEntity
  8
0
100
AcDbLine
 10
373.175315
 20
1825.293319
 30
0.0
 11
373.175315
 21
1768.293319
 31
0.0
  0
LINE
  5
97C
100
AcDbEntity
  8
0
100
AcDbLine
 10
173.175315
 20
1815.293319
 30
0.0
 11
363.175315
 21
1815.293319
 31
0.0
  0
LINE
  5
97D
100
AcDbEntity
  8
0
100
AcDbLine
 10
173.175315
 20
1778.293319
 30
0.0
 11
363.175315
 21
1778.293319
 31
0.0
  0
LINE
  5
97E
100
AcDbEntity
  8
0
100
AcDbLine
 10
173.175315
 20
1815.293319
 30
0.0
 11
173.175315
 21
1778.293319
 31
0.0
  0
LINE
  5
97F
100
AcDbEntity
  8
0
100
AcDbLine
 10
363.175315
 20
1815.293319
 30
0.0
 11
363.175315
 21
1778.293319
 31
0.0
  0
CIRCLE
  5
9A6
100
AcDbEntity
  8
0
100
AcDbCircle
 10
53.175346
 20
62.87257
 30
0.0
 40
20.0
  0
LINE
  5
9A7
100
AcDbEntity
  8
0
100
AcDbLine
 10
2140.828945
 20
82.87257
 30
0.0
 11
1565.828945
 21
82.87257
 31
0.0
  0
LINE
  5
9AC
100
AcDbEntity
  8
0
100
AcDbLine
 10
78.175346
 20
82.87257
 30
0.0
 11
33.175346
 21
82.87257
 31
0.0
  0
CIRCLE
  5
9B1
100
AcDbEntity
  8
0
100
AcDbCircle
 10
2122.828945
 20
62.87257
 30
0.0
 40
20.0
  0
CIRCLE
  5
9B2
100
AcDbEntity
  8
0
100
AcDbCircle
 10
1585.828945
 20
62.87257
 30
0.0
 40
20.0
  0
LINE
  5
9B6
100
AcDbEntity
  8
0
100
AcDbLine
 10
53.175346
 20
42.87257
 30
0.0
 11
483.175346
 21
42.87257
 31
0.0
  0
LINE
  5
9B7
100
AcDbEntity
  8
0
100
AcDbLine
 10
78.175346
 20
507.87257
 30
0.0
 11
908.175346
 21
507.87257
 31
0.0
  0
LINE
  5
9B8
100
AcDbEntity
  8
0
100
AcDbLine
 10
78.175346
 20
567.87257
 30
0.0
 11
908.175346
 21
567.87257
 31
0.0
  0
LINE
  5
9B9
100
AcDbEntity
  8
0
100
AcDbLine
 10
78.175346
 20
587.87257
 30
0.0
 11
458.175346
 21
587.87257
 31
0.0
  0
LINE
  5
9BA
100
AcDbEntity
  8
0
100
AcDbLine
 10
78.175346
 20
707.87257
 30
0.0
 11
458.175346
 21
707.87257
 31
0.0
  0
LINE
  5
9BB
100
AcDbEntity
  8
0
100
AcDbLine
 10
78.175346
 20
727.87257
 30
0.0
 11
908.175346
 21
727.87257
 31
0.0
  0
LINE
  5
9BC
100
AcDbEntity
  8
0
100
AcDbLine
 10
33.175346
 20
812.87257
 30
0.0
 11
33.175346
 21
82.87257
 31
0.0
  0
LINE
  5
9C1
100
AcDbEntity
  8
0
100
AcDbLine
 10
208.175346
 20
672.675558
 30
0.0
 11
328.175346
 21
672.675558
 31
0.0
  0
LINE
  5
9C2
100
AcDbEntity
  8
0
100
AcDbLine
 10
208.175346
 20
682.675558
 30
0.0
 11
328.175346
 21
682.675558
 31
0.0
  0
CIRCLE
  5
9C4
100
AcDbEntity
  8
0
100
AcDbCircle
 10
268.175346
 20
644.044346
 30
0.0
 40
15.0
  0
ARC
  5
9C5
100
AcDbEntity
  8
0
100
AcDbCircle
 10
208.175346
 20
677.675558
 30
0.0
 40
5.0
100
AcDbArc
 50
90.0
 51
270.0
  0
ARC
  5
9C6
100
AcDbEntity
  8
0
100
AcDbCircle
 10
328.175346
 20
677.675558
 30
0.0
 40
5.0
100
AcDbArc
 50
270.0
 51
90.0
  0
DIMENSION
  5
9E1
100
AcDbEntity
  8
0
  6
DASHED2
100
AcDbDimension
  2
*D7
 10
1070.855709
 20
42.87257
 30
0.0
 11
1070.855709
 21
590.285126
 31
0.0
 12
269.460829
 22
0.0
 32
0.0
 70
   160
  3
STANDARD_WS
100
AcDbAlignedDimension
 13
972.598808
 23
842.87257
 33
0.0
 14
970.141118
 24
42.87257
 34
0.0
 50
90.0
100
AcDbRotatedDimension
  0
DIMENSION
  5
9EE
100
AcDbEntity
  8
0
  6
DASHED2
100
AcDbDimension
  2
*D8
 10
1070.25378
 20
942.87257
 30
0.0
 11
1058.149403
 21
892.87257
 31
0.0
 12
269.460829
 22
0.0
 32
0.0
 70
    32
  3
STANDARD_WS
100
AcDbAlignedDimension
 13
972.598808
 23
842.87257
 33
0.0
 14
975.009803
 24
942.87257
 34
0.0
 50
90.0
100
AcDbRotatedDimension
  0
LINE
  5
9F0
100
AcDbEntity
  8
0
  6
HIDDEN2
100
AcDbLine
 10
1595.828945
 20
817.87257
 30
0.0
 11
1595.828945
 21
747.87257
 31
0.0
  0
LINE
  5
9F4
100
AcDbEntity
  8
0
  6
HIDDEN2
100
AcDbLine
 10
1760.828945
 20
732.87257
 30
0.0
 11
1760.828945
 21
637.87257
 31
0.0
  0
LINE
  5
9F5
100
AcDbEntity
  8
0
  6
HIDDEN2
100
AcDbLine
 10
1555.828945
 20
842.87257
 30
0.0
 11
1595.828945
 21
817.87257
 31
0.0
  0
LINE
  5
9F9
100
AcDbEntity
  8
0
100
AcDbLine
 10
28.175315
 20
1752.293319
 30
0.0
 11
60.675315
 21
1722.293319
 31
0.0
  0
LINE
  5
9FA
100
AcDbEntity
  8
0
100
AcDbLine
 10
60.675315
 20
1292.293319
 30
0.0
 11
28.175315
 21
1252.293319
 31
0.0
  0
LINE
  5
9FC
100
AcDbEntity
  8
0
  6
HIDDEN2
100
AcDbLine
 10
2055.828945
 20
842.87257
 30
0.0
 11
2025.828945
 21
817.87257
 31
0.0
  0
LINE
  5
9FD
100
AcDbEntity
  8
0
  6
HIDDEN2
100
AcDbLine
 10
2025.828945
 20
817.87257
 30
0.0
 11
2025.828945
 21
298.561276
 31
0.0
  0
LINE
  5
A0D
100
AcDbEntity
  8
0
  6
HIDDEN2
100
AcDbLine
 10
1760.828945
 20
722.87257
 30
0.0
 11
2025.828945
 21
722.87257
 31
0.0
  0
LINE
  5
A0E
100
AcDbEntity
  8
0
  6
HIDDEN2
100
AcDbLine
 10
1760.828945
 20
652.87257
 30
0.0
 11
2025.828945
 21
652.87257
 31
0.0
  0
LINE
  5
A0F
100
AcDbEntity
  8
0
  6
HIDDEN2
100
AcDbLine
 10
1800.828945
 20
592.87257
 30
0.0
 11
2025.828945
 21
592.87257
 31
0.0
  0
LINE
  5
A10
100
AcDbEntity
  8
0
  6
HIDDEN2
100
AcDbLine
 10
1800.828945
 20
532.87257
 30
0.0
 11
2025.828945
 21
532.87257
 31
0.0
  0
LINE
  5
A13
100
AcDbEntity
  8
0
  6
HIDDEN2
100
AcDbLine
 10
1760.828945
 20
637.87257
 30
0.0
 11
1800.828945
 21
617.87257
 31
0.0
  0
LINE
  5
A14
100
AcDbEntity
  8
0
  6
HIDDEN2
100
AcDbLine
 10
1800.828945
 20
617.87257
 30
0.0
 11
1800.828945
 21
282.87257
 31
0.0
  0
LINE
  5
A16
100
AcDbEntity
  8
0
100
AcDbLine
 10
103.175346
 20
282.87257
 30
0.0
 11
883.175346
 21
282.87257
 31
0.0
  0
DIMENSION
  5
A23
100
AcDbEntity
  8
0
  6
DASHED2
100
AcDbDimension
  2
*D9
 10
1034.057262
 20
1752.293319
 30
0.0
 11
1021.952885
 21
1797.293319
 31
0.0
 12
273.603434
 22
0.0
 32
0.0
 70
    32
  3
STANDARD_WS
100
AcDbAlignedDimension
 13
972.042337
 23
1842.293319
 33
0.0
 14
969.495931
 24
1752.293319
 34
0.0
 50
90.0
100
AcDbRotatedDimension
  0
DIMENSION
  5
A48
100
AcDbEntity
  8
0
  6
DASHED2
100
AcDbDimension
  2
*D10
 10
-26.463402
 20
1292.293319
 30
0.0
 11
-38.567779
 21
1507.293319
 31
0.0
 12
-177.717331
 22
0.0
 32
0.0
 70
    32
  3
STANDARD_WS
100
AcDbAlignedDimension
 13
39.675635
 23
1722.293319
 33
0.0
 14
41.957414
 24
1292.293319
 34
0.0
 50
90.0
100
AcDbRotatedDimension
  0
DIMENSION
  5
A55
100
AcDbEntity
  8
0
  6
DASHED2
100
AcDbDimension
  2
*D11
 10
1032.836589
 20
1252.293319
 30
0.0
 11
1032.836589
 21
1581.773796
 31
0.0
 70
   160
  3
STANDARD_WS
100
AcDbAlignedDimension
 13
969.495931
 23
1752.293319
 33
0.0
 14
985.840474
 24
1252.293319
 34
0.0
 50
90.0
100
AcDbRotatedDimension
  0
DIMENSION
  5
A87
100
AcDbEntity
  8
0
  6
DASHED2
100
AcDbDimension
  2
*D12
 10
420.085537
 20
1768.293319
 30
0.0
 11
407.98116
 21
1796.793319
 31
0.0
 12
-177.717331
 22
0.0
 32
0.0
 70
    32
  3
STANDARD_WS
100
AcDbAlignedDimension
 13
383.215935
 23
1825.293319
 33
0.0
 14
385.76234
 24
1768.293319
 34
0.0
 50
90.0
100
AcDbRotatedDimension
  0
LINE
  5
A88
100
AcDbEntity
  8
0
100
AcDbLine
 10
163.175346
 20
1002.87257
 30
0.0
 11
373.175346
 21
1002.87257
 31
0.0
  0
LINE
  5
A89
100
AcDbEntity
  8
0
100
AcDbLine
 10
373.175346
 20
1002.87257
 30
0.0
 11
373.175346
 21
942.87257
 31
0.0
  0
LINE
  5
A8A
100
AcDbEntity
  8
0
100
AcDbLine
 10
163.175346
 20
1002.87257
 30
0.0
 11
163.175346
 21
942.87257
 31
0.0
  0
LINE
  5
A8B
100
AcDbEntity
  8
0
100
AcDbLine
 10
163.175315
 20
1722.293319
 30
0.0
 11
163.175315
 21
1457.293319
 31
0.0
  0
LINE
  5
A8C
100
AcDbEntity
  8
0
100
AcDbLine
 10
373.175315
 20
1722.293319
 30
0.0
 11
373.175315
 21
1457.293319
 31
0.0
  0
DIMENSION
  5
A99
100
AcDbEntity
  8
0
  6
DASHED2
100
AcDbDimension
  2
*D13
 10
418.401448
 20
942.87257
 30
0.0
 11
406.297071
 21
972.87257
 31
0.0
 12
-177.7173
 22
0.0
 32
0.0
 70
    32
  3
STANDARD_WS
100
AcDbAlignedDimension
 13
384.624976
 23
1002.87257
 33
0.0
 14
373.175346
 24
942.87257
 34
0.0
 50
90.0
100
AcDbRotatedDimension
  0
LINE
  5
AA5
100
AcDbEntity
  8
0
  6
HIDDEN2
100
AcDbLine
 10
1800.828945
 20
282.87257
 30
0.0
 11
2025.828945
 21
298.561276
 31
0.0
  0
LINE
  5
AAA
100
AcDbEntity
  8
0
100
AcDbLine
 10
103.175346
 20
507.87257
 30
0.0
 11
103.175346
 21
458.595584
 31
0.0
  0
LINE
  5
AAB
100
AcDbEntity
  8
0
100
AcDbLine
 10
2070.828945
 20
1002.87257
 30
0.0
 11
2127.828945
 21
1002.87257
 31
0.0
  0
LINE
  5
AAC
100
AcDbEntity
  8
0
100
AcDbLine
 10
2070.828945
 20
1002.87257
 30
0.0
 11
2070.828945
 21
942.87257
 31
0.0
  0
LINE
  5
AAD
100
AcDbEntity
  8
0
100
AcDbLine
 10
2127.828945
 20
1002.87257
 30
0.0
 11
2127.828945
 21
942.87257
 31
0.0
  0
LINE
  5
AAE
100
AcDbEntity
  8
0
  6
HIDDEN2
100
AcDbLine
 10
2025.828945
 20
737.87257
 30
0.0
 11
2127.828945
 21
737.87257
 31
0.0
  0
LINE
  5
AB0
100
AcDbEntity
  8
0
  6
HIDDEN2
100
AcDbLine
 10
2025.828945
 20
517.87257
 30
0.0
 11
2127.828945
 21
561.228057
 31
0.0
  0
LINE
  5
AB4
100
AcDbEntity
  8
0
  6
HIDDEN2
100
AcDbLine
 10
2127.828945
 20
737.87257
 30
0.0
 11
2127.828945
 21
561.228057
 31
0.0
  0
LINE
  5
AB5
100
AcDbEntity
  8
0
  6
HIDDEN2
100
AcDbLine
 10
2073.828945
 20
942.87257
 30
0.0
 11
2073.828945
 21
737.87257
 31
0.0
  0
LINE
  5
AB6
100
AcDbEntity
  8
0
  6
HIDDEN2
100
AcDbLine
 10
2124.828945
 20
939.87257
 30
0.0
 11
2124.828945
 21
737.87257
 31
0.0
  0
LINE
  5
AB7
100
AcDbEntity
  8
0
  6
HIDDEN2
100
AcDbLine
 10
2101.866756
 20
864.080598
 30
0.0
 11
2101.866756
 21
656.531219
 31
0.0
  0
LINE
  5
AB8
100
AcDbEntity
  8
0
  6
HIDDEN2
100
AcDbLine
 10
2101.866756
 20
656.531219
 30
0.0
 11
2025.828945
 21
620.25729
 31
0.0
  0
LWPOLYLINE
  5
C29
100
AcDbEntity
  8
0
  6
HIDDEN2
100
AcDbPolyline
 90
        4
 70
     1
 43
0.0
 10
1638.189857
 20
717.76491
 10
1757.118769
 20
730.72886
 10
1757.118769
 20
596.768069
 10
1638.189857
 20
596.768069
  0
LWPOLYLINE
  5
C2A
100
AcDbEntity
  8
0
  6
HIDDEN2
100
AcDbPolyline
 90
        4
 70
     1
 43
0.0
 10
1666.299741
 20
619.000414
 10
1737.906604
 20
619.000414
 10
1737.906604
 20
588.995141
 10
1666.299741
 20
588.995141
  0
LWPOLYLINE
  5
C2E
100
AcDbEntity
  8
0
100
AcDbPolyline
 90
        4
 70
     1
 43
0.0
 10
171.261396
 20
461.292511
 10
215.415989
 20
461.292511
 10
215.415989
 20
435.674354
 10
171.261396
 20
435.674354
  0
CIRCLE
  5
C2F
100
AcDbEntity
  8
0
100
AcDbCircle
 10
193.215891
 20
448.48343
 30
0.0
 40
11.385849
  0
LINE
  5
C47
100
AcDbEntity
  8
0
100
AcDbLine
 10
171.261396
 20
456.595584
 30
0.0
 11
185.226492
 21
456.595584
 31
0.0
  0
LINE
  5
C48
100
AcDbEntity
  8
0
100
AcDbLine
 10
171.261396
 20
440.38906
 30
0.0
 11
185.208474
 21
440.38906
 31
0.0
  0
LINE
  5
C49
100
AcDbEntity
  8
0
100
AcDbLine
 10
78.175346
 20
458.595584
 30
0.0
 11
116.407687
 21
458.595584
 31
0.0
  0
LINE
  5
C4A
100
AcDbEntity
  8
0
100
AcDbLine
 10
78.175346
 20
438.38906
 30
0.0
 11
116.151233
 21
438.38906
 31
0.0
  0
LWPOLYLINE
  5
C4B
100
AcDbEntity
  8
0
100
AcDbPolyline
 90
        4
 70
     1
 43
0.0
 10
190.003773
 20
458.917359
 10
196.243991
 20
458.917359
 10
196.243991
 20
438.292708
 10
190.003773
 20
438.292708
  0
LINE
  5
C4C
100
AcDbEntity
  8
0
100
AcDbLine
 10
201.20529
 20
456.595584
 30
0.0
 11
215.415989
 21
456.595584
 31
0.0
  0
LINE
  5
C4D
100
AcDbEntity
  8
0
100
AcDbLine
 10
201.223309
 20
440.38906
 30
0.0
 11
215.415989
 21
440.38906
 31
0.0
  0
LINE
  5
C4E
100
AcDbEntity
  8
0
100
AcDbLine
 10
215.415989
 20
438.38906
 30
0.0
 11
327.161062
 21
438.38906
 31
0.0
  0
LINE
  5
C52
100
AcDbEntity
  8
0
100
AcDbLine
 10
157.697449
 20
458.595584
 30
0.0
 11
171.261396
 21
458.595584
 31
0.0
  0
LINE
  5
C57
100
AcDbEntity
  8
0
100
AcDbLine
 10
157.440994
 20
438.38906
 30
0.0
 11
171.261396
 21
438.38906
 31
0.0
  0
LINE
  5
C58
100
AcDbEntity
  8
0
100
AcDbLine
 10
103.175346
 20
438.38906
 30
0.0
 11
103.175346
 21
282.87257
 31
0.0
  0
LINE
  5
C5D
100
AcDbEntity
  8
0
100
AcDbLine
 10
430.071994
 20
458.595584
 30
0.0
 11
367.672559
 21
458.595584
 31
0.0
  0
LINE
  5
C5E
100
AcDbEntity
  8
0
100
AcDbLine
 10
215.415989
 20
458.595584
 30
0.0
 11
301.451589
 21
458.595584
 31
0.0
  0
LWPOLYLINE
  5
C70
100
AcDbEntity
  8
0
100
AcDbPolyline
 90
        6
 70
     0
 43
0.0
 10
356.011095
 20
488.745729
 10
356.011095
 20
475.225659
 10
343.949227
 20
475.225659
 10
343.949227
 20
502.774147
 10
356.011095
 20
502.774147
 10
356.011095
 20
493.745729
  0
LINE
  5
C72
100
AcDbEntity
  8
0
100
AcDbLine
 10
349.232947
 20
493.745729
 30
0.0
 11
377.524298
 21
493.745729
 31
0.0
  0
LINE
  5
C73
100
AcDbEntity
  8
0
100
AcDbLine
 10
349.232947
 20
488.745729
 30
0.0
 11
377.524298
 21
488.745729
 31
0.0
  0
LINE
  5
C74
100
AcDbEntity
  8
0
100
AcDbLine
 10
349.232947
 20
493.745729
 30
0.0
 11
349.232947
 21
488.745729
 31
0.0
  0
ARC
  5
C75
100
AcDbEntity
  8
0
100
AcDbCircle
 10
377.524298
 20
491.245729
 30
0.0
 40
2.5
100
AcDbArc
 50
270.0
 51
90.0
  0
LWPOLYLINE
  5
C76
100
AcDbEntity
  8
0
100
AcDbPolyline
 90
        4
 70
     1
 43
0.0
 10
345.243019
 20
505.411044
 10
355.064295
 20
505.411044
 10
355.064295
 20
503.055774
 10
345.243019
 20
503.055774
  0
LINE
  5
C77
100
AcDbEntity
  8
0
100
AcDbLine
 10
348.582253
 20
505.411044
 30
0.0
 11
348.582253
 21
503.055774
 31
0.0
  0
LINE
  5
C78
100
AcDbEntity
  8
0
100
AcDbLine
 10
352.314338
 20
505.21477
 30
0.0
 11
352.314338
 21
502.8595
 31
0.0
  0
LINE
  5
C79
100
AcDbEntity
  8
0
100
AcDbLine
 10
346.814423
 20
507.57004
 30
0.0
 11
346.814423
 21
505.411044
 31
0.0
  0
LINE
  5
C7A
100
AcDbEntity
  8
0
100
AcDbLine
 10
353.296465
 20
507.57004
 30
0.0
 11
353.296465
 21
505.607312
 31
0.0
  0
MTEXT
  5
C7C
100
AcDbEntity
  8
0
100
AcDbMText
 10
1681.572659
 20
1599.26562
 30
0.0
 40
30.0
 41
0.0
 71
     1
 72
     5
  1
\fMS UI Gothic|b0|i0|c128|p50;１６０\U+2103～２２０\U+2103
  0
LEADER
  5
C7D
100
AcDbEntity
  8
0
100
AcDbLeader
  3
STANDARD_WS
 73
     0
 74
     0
 40
24.659091
 41
147.613636
 76
     2
 10
830.951241
 20
447.139446
 30
0.0
 10
922.461022
 20
469.958218
 30
0.0
 77
   256
340
C7E
  0
MTEXT
  5
C7E
102
{ACAD_REACTORS
330
C7D
102
}
100
AcDbEntity
  8
0
100
AcDbMText
 10
924.565399
 20
484.392141
 30
0.0
 40
20.0
 41
0.0
 71
     4
 72
     1
  1
\A1;\fMS UI Gothic|b0|i0|c128|p50;サーモスタット
  0
LEADER
  5
C8A
100
AcDbEntity
  8
0
100
AcDbLeader
  3
STANDARD_WS
 73
     0
 74
     0
 75
     1
 40
26.477273
 41
172.613636
 76
     3
 10
902.125509
 20
342.154577
 30
0.0
 10
935.663896
 20
299.718694
 30
0.0
 10
944.081404
 20
299.718694
 30
0.0
 77
   256
340
C8B
  0
MTEXT
  5
C8B
102
{ACAD_REACTORS
330
C8A
102
}
100
AcDbEntity
  8
0
100
AcDbMText
 10
946.185781
 20
315.061707
 30
0.0
 40
20.0
 41
0.0
 71
     4
 72
     1
  1
\A1;\fMS UI Gothic|b0|i0|c128|p50;接続口径１５A
  0
LEADER
  5
C98
100
AcDbEntity
  8
0
100
AcDbLeader
  3
STANDARD_WS
 73
     0
 74
     0
 40
27.613636
 41
171.590909
 76
     2
 10
901.543761
 20
362.369676
 30
0.0
 10
953.747305
 20
371.782418
 30
0.0
 77
   256
340
C99
  0
MTEXT
  5
C99
102
{ACAD_REACTORS
330
C98
102
}
100
AcDbEntity
  8
0
100
AcDbMText
 10
955.851682
 20
387.693613
 30
0.0
 40
20.0
 41
0.0
 71
     4
 72
     1
  1
\A1;\fMS UI Gothic|b0|i0|c128|p50;過熱防止装置
  0
LEADER
  5
C9A
100
AcDbEntity
  8
0
100
AcDbLeader
  3
STANDARD_WS
 73
     0
 74
     0
 75
     1
 40
27.272727
 41
204.090909
 76
     3
 10
521.800204
 20
478.136255
 30
0.0
 10
558.345185
 20
516.661096
 30
0.0
 10
566.762693
 20
516.661096
 30
0.0
 77
   256
340
C9B
  0
MTEXT
  5
C9B
102
{ACAD_REACTORS
330
C9A
102
}
100
AcDbEntity
  8
0
100
AcDbMText
 10
568.86707
 20
532.401836
 30
0.0
 40
20.0
 41
0.0
 71
     4
 72
     1
  1
\A1;\fMS UI Gothic|b0|i0|c128|p50;排油バルブ　３２A
  0
LEADER
  5
C9C
100
AcDbEntity
  8
0
100
AcDbLeader
  3
STANDARD_WS
 73
     0
 75
     1
 40
25.568182
 41
99.204545
 76
     3
 10
174.776108
 20
432.03383
 30
0.0
 10
30.411278
 20
383.615242
 30
0.0
 10
21.99377
 20
383.615242
 30
0.0
 77
   256
340
C9D
  0
MTEXT
  5
C9D
102
{ACAD_REACTORS
330
C9C
102
}
100
AcDbEntity
  8
0
100
AcDbMText
 10
19.889393
 20
398.50371
 30
0.0
 40
20.0
 41
0.0
 71
     6
 72
     1
  1
\A1;\fMS UI Gothic|b0|i0|c128|p50;ガスコック
  0
MTEXT
  5
C9F
100
AcDbEntity
  8
0
100
AcDbMText
 10
1866.123791
 20
698.370266
 30
0.0
 40
20.0
 41
0.0
 71
     1
 72
     5
  1
\fMS UI Gothic|b0|i0|c128|p50;熱管
  0
LEADER
  5
CA0
100
AcDbEntity
  8
0
100
AcDbLeader
  3
STANDARD_WS
 73
     0
 75
     1
 40
25.568182
 41
93.522727
 76
     3
 10
1670.222018
 20
608.446634
 30
0.0
 10
1626.447369
 20
563.175811
 30
0.0
 10
1618.029861
 20
563.175811
 30
0.0
 77
   256
340
CA1
  0
MTEXT
  5
CA1
102
{ACAD_REACTORS
330
CA0
102
}
100
AcDbEntity
  8
0
100
AcDbMText
 10
1615.925484
 20
578.064279
 30
0.0
 40
20.0
 41
0.0
 71
     6
 72
     1
  1
\A1;\fMS UI Gothic|b0|i0|c128|p50;バーナー
  0
LEADER
  5
CCE
100
AcDbEntity
  8
0
100
AcDbLeader
  3
STANDARD_WS
 73
     0
 74
     0
 75
     1
 40
66.022727
 41
227.045455
 76
     3
 10
929.274702
 20
1514.420242
 30
0.0
 10
996.98894
 20
1444.125696
 30
0.0
 10
1005.406448
 20
1444.125696
 30
0.0
 77
   256
340
CCF
  0
MTEXT
  5
CCF
102
{ACAD_REACTORS
330
CCE
102
}
100
AcDbEntity
  8
0
100
AcDbMText
 10
1007.510825
 20
1479.241437
 30
0.0
 40
20.0
 41
0.0
 71
     4
 72
     1
  1
\A1;\fMS UI Gothic|b0|i0|c128|p50;サーモスタット\P過熱防止　センサー
  0
DIMENSION
  5
CDC
100
AcDbEntity
  8
0
  6
DASHED2
100
AcDbDimension
  2
*D14
 10
2145.828945
 20
1059.825471
 30
0.0
 11
1850.828945
 21
1071.929848
 31
0.0
 12
24.439578
 22
0.0
 32
0.0
 70
    32
  3
STANDARD_WS
100
AcDbAlignedDimension
 13
1555.828945
 23
857.888974
 33
0.0
 14
2145.828945
 24
959.238487
 34
0.0
100
AcDbRotatedDimension
  0
DIMENSION
  5
CE9
100
AcDbEntity
  8
0
  6
DASHED2
100
AcDbDimension
  2
*D15
 10
1595.828945
 20
904.993079
 30
0.0
 11
1575.828945
 21
917.097456
 31
0.0
 12
24.439578
 22
0.0
 32
0.0
 70
    32
  3
STANDARD_WS
100
AcDbAlignedDimension
 13
1555.828945
 23
857.888974
 33
0.0
 14
1595.828945
 24
830.330205
 34
0.0
100
AcDbRotatedDimension
  0
DIMENSION
  5
CF5
100
AcDbEntity
  8
0
  6
DASHED2
100
AcDbDimension
  2
*D16
 10
2025.828945
 20
904.993079
 30
0.0
 11
1810.828945
 21
917.097456
 31
0.0
 12
24.439578
 22
0.0
 32
0.0
 70
    32
  3
STANDARD_WS
100
AcDbAlignedDimension
 13
1595.828945
 23
830.330205
 33
0.0
 14
2025.828945
 24
831.052327
 34
0.0
100
AcDbRotatedDimension
1001
ACAD
1000
DSTYLE
1002
{
1070
    75
1070
     1
1070
   287
1070
     4
1002
}
  0
DIMENSION
  5
D2A
100
AcDbEntity
  8
0
  6
DASHED2
100
AcDbDimension
  2
*D17
 10
1892.161455
 20
842.87257
 30
0.0
 11
1880.057078
 21
782.87257
 31
0.0
 12
24.439578
 22
0.0
 32
0.0
 70
    32
  3
STANDARD_WS
100
AcDbAlignedDimension
 13
1893.328945
 23
722.87257
 33
0.0
 14
1893.328945
 24
842.87257
 34
0.0
 50
90.0
100
AcDbRotatedDimension
  0
DIMENSION
  5
D37
100
AcDbEntity
  8
0
  6
DASHED2
100
AcDbDimension
  2
*D18
 10
2055.828945
 20
1025.063814
 30
0.0
 11
2100.828945
 21
1037.168191
 31
0.0
 12
24.439578
 22
0.0
 32
0.0
 70
    32
  3
STANDARD_WS
100
AcDbAlignedDimension
 13
2145.828945
 23
959.238487
 33
0.0
 14
2055.828945
 24
962.702979
 34
0.0
100
AcDbRotatedDimension
  0
DIMENSION
  5
DC7
100
AcDbEntity
  8
0
  6
DASHED2
100
AcDbDimension
  2
*D19
 10
1608.83951
 20
747.87257
 30
0.0
 11
1596.735133
 21
782.87257
 31
0.0
 12
24.439578
 22
0.0
 32
0.0
 70
    32
  3
STANDARD_WS
100
AcDbAlignedDimension
 13
1595.828945
 23
817.87257
 33
0.0
 14
1595.828945
 24
747.87257
 34
0.0
 50
90.0
100
AcDbRotatedDimension
  0
MTEXT
  5
E14
100
AcDbEntity
  8
0
100
AcDbMText
 10
1473.632293
 20
1499.830871
 30
0.0
 40
30.0
 41
0.0
 71
     1
 72
     5
  1
\fMS UI Gothic|b0|i0|c128|p50;熱　　　量
  0
MTEXT
  5
E15
100
AcDbEntity
  8
0
100
AcDbMText
 10
1681.78269
 20
1502.463636
 30
0.0
 40
30.0
 41
0.0
 71
     1
 72
     5
  1
\fMS UI Gothic|b0|i0|c128|p50;１９.７Kw（１７,０００Kcal/h)
  0
LINE
  5
E28
100
AcDbEntity
  8
0
  6
HIDDEN2
100
AcDbLine
 10
1681.432757
 20
588.351027
 30
0.0
 11
1681.432757
 21
519.094407
 31
0.0
  0
LINE
  5
E29
100
AcDbEntity
  8
0
  6
HIDDEN2
100
AcDbLine
 10
1721.432757
 20
588.351027
 30
0.0
 11
1721.432757
 21
519.094407
 31
0.0
  0
ARC
  5
E2B
100
AcDbEntity
  8
0
  6
HIDDEN2
100
AcDbCircle
 10
1701.432757
 20
519.094407
 30
0.0
 40
20.0
100
AcDbArc
 50
180.0
 51
0.0
  0
INSERT
  5
E45
100
AcDbEntity
  8
0
100
AcDbBlockReference
  2
A$C7BAC38FA
 10
116.356927
 20
427.379602
 30
0.0
  0
CIRCLE
  5
E4C
100
AcDbEntity
  8
0
100
AcDbCircle
 10
495.542695
 20
305.551953
 30
0.0
 40
28.0
  0
LINE
  5
E57
100
AcDbEntity
  8
0
  6
HIDDEN2
100
AcDbLine
 10
1595.828945
 20
747.87257
 30
0.0
 11
1760.828945
 21
732.87257
 31
0.0
  0
DIMENSION
  5
E64
100
AcDbEntity
  8
0
  6
DASHED2
100
AcDbDimension
  2
*D21
 10
1763.71448
 20
817.87257
 30
0.0
 11
1751.610103
 21
775.37257
 31
0.0
 12
24.439578
 22
0.0
 32
0.0
 70
    32
  3
STANDARD_WS
100
AcDbAlignedDimension
 13
1760.828945
 23
732.87257
 33
0.0
 14
1760.828945
 24
817.87257
 34
0.0
 50
90.0
100
AcDbRotatedDimension
  0
DIMENSION
  5
E7D
100
AcDbEntity
  8
0
  6
DASHED2
100
AcDbDimension
  2
*D22
 10
2025.828945
 20
920.202131
 30
0.0
 11
2000.307059
 21
932.306508
 31
0.0
 12
24.439578
 22
0.0
 32
0.0
 70
    32
  3
STANDARD_WS
100
AcDbAlignedDimension
 13
2055.828945
 23
860.451205
 33
0.0
 14
2025.828945
 24
861.948518
 34
0.0
100
AcDbRotatedDimension
  0
LINE
  5
EAF
100
AcDbEntity
  8
0
100
AcDbLine
 10
478.175315
 20
1842.293319
 30
0.0
 11
958.175315
 21
1842.293319
 31
0.0
  0
LINE
  5
EB0
100
AcDbEntity
  8
0
100
AcDbLine
 10
478.175315
 20
1752.293319
 30
0.0
 11
958.175315
 21
1752.293319
 31
0.0
  0
LINE
  5
EB2
100
AcDbEntity
  8
0
100
AcDbLine
 10
510.675315
 20
1722.293319
 30
0.0
 11
925.675315
 21
1722.293319
 31
0.0
  0
LINE
  5
EB3
100
AcDbEntity
  8
0
100
AcDbLine
 10
478.175315
 20
1252.293319
 30
0.0
 11
958.175315
 21
1252.293319
 31
0.0
  0
LINE
  5
EB4
100
AcDbEntity
  8
0
100
AcDbLine
 10
510.675315
 20
1292.293319
 30
0.0
 11
925.675315
 21
1292.293319
 31
0.0
  0
LINE
  5
EB9
100
AcDbEntity
  8
0
100
AcDbLine
 10
533.175315
 20
1722.293319
 30
0.0
 11
533.175315
 21
1457.293319
 31
0.0
  0
LINE
  5
EBD
100
AcDbEntity
  8
0
100
AcDbLine
 10
958.175315
 20
1842.293319
 30
0.0
 11
958.175315
 21
1252.293319
 31
0.0
  0
LINE
  5
EBE
100
AcDbEntity
  8
0
100
AcDbLine
 10
925.675315
 20
1722.293319
 30
0.0
 11
925.675315
 21
1292.293319
 31
0.0
  0
LINE
  5
EBF
100
AcDbEntity
  8
0
100
AcDbLine
 10
753.175315
 20
1722.293319
 30
0.0
 11
753.175315
 21
1457.293319
 31
0.0
  0
LINE
  5
EC0
100
AcDbEntity
  8
0
100
AcDbLine
 10
683.175315
 20
1722.293319
 30
0.0
 11
683.175315
 21
1457.293319
 31
0.0
  0
LINE
  5
EC1
100
AcDbEntity
  8
0
100
AcDbLine
 10
823.175315
 20
1722.293319
 30
0.0
 11
823.175315
 21
1457.293319
 31
0.0
  0
LINE
  5
EC2
100
AcDbEntity
  8
0
100
AcDbLine
 10
613.175315
 20
1722.293319
 30
0.0
 11
613.175315
 21
1457.293319
 31
0.0
  0
LINE
  5
EC3
100
AcDbEntity
  8
0
100
AcDbLine
 10
843.175315
 20
1722.293319
 30
0.0
 11
843.175315
 21
1457.293319
 31
0.0
  0
LINE
  5
EC4
100
AcDbEntity
  8
0
100
AcDbLine
 10
593.175315
 20
1722.293319
 30
0.0
 11
593.175315
 21
1457.293319
 31
0.0
  0
LINE
  5
EC5
100
AcDbEntity
  8
0
100
AcDbLine
 10
903.175315
 20
1722.293319
 30
0.0
 11
903.175315
 21
1457.293319
 31
0.0
  0
LINE
  5
EC6
100
AcDbEntity
  8
0
100
AcDbLine
 10
613.175315
 20
1722.293319
 30
0.0
 11
613.175315
 21
1457.293319
 31
0.0
  0
LINE
  5
EC7
100
AcDbEntity
  8
0
100
AcDbLine
 10
823.175315
 20
1722.293319
 30
0.0
 11
823.175315
 21
1457.293319
 31
0.0
  0
LINE
  5
EC8
100
AcDbEntity
  8
0
100
AcDbLine
 10
925.675315
 20
1292.293319
 30
0.0
 11
958.175315
 21
1252.293319
 31
0.0
  0
LINE
  5
EC9
100
AcDbEntity
  8
0
100
AcDbLine
 10
913.668604
 20
1499.169051
 30
0.0
 11
913.668604
 21
1457.293319
 31
0.0
  0
LINE
  5
ECA
100
AcDbEntity
  8
0
100
AcDbLine
 10
918.52761
 20
1499.169051
 30
0.0
 11
918.52761
 21
1457.293319
 31
0.0
  0
LWPOLYLINE
  5
ECB
100
AcDbEntity
  8
0
100
AcDbPolyline
 90
        4
 70
     1
 43
0.0
 10
911.84646
 20
1614.990808
 10
915.25269
 20
1614.990808
 10
915.25269
 20
1499.269346
 10
911.84646
 20
1499.269346
  0
INSERT
  5
ECC
100
AcDbEntity
  8
0
100
AcDbBlockReference
  2
A$C4F2B35B1
 10
916.97376
 20
1499.132509
 30
0.0
  0
DIMENSION
  5
ECD
100
AcDbEntity
  8
0
  6
DASHED2
100
AcDbDimension
  2
*D23
 10
870.085537
 20
1768.293319
 30
0.0
 11
857.98116
 21
1796.793319
 31
0.0
 12
-15.0
 22
0.0
 32
0.0
 70
    32
  3
STANDARD_WS
100
AcDbAlignedDimension
 13
833.215935
 23
1825.293319
 33
0.0
 14
835.76234
 24
1768.293319
 34
0.0
 50
90.0
100
AcDbRotatedDimension
  0
LINE
  5
ED0
100
AcDbEntity
  8
0
100
AcDbLine
 10
613.175315
 20
1825.293319
 30
0.0
 11
823.175315
 21
1825.293319
 31
0.0
  0
LINE
  5
ED1
100
AcDbEntity
  8
0
100
AcDbLine
 10
613.175315
 20
1768.293319
 30
0.0
 11
823.175315
 21
1768.293319
 31
0.0
  0
LINE
  5
ED2
100
AcDbEntity
  8
0
100
AcDbLine
 10
623.175315
 20
1815.293319
 30
0.0
 11
813.175315
 21
1815.293319
 31
0.0
  0
LINE
  5
ED3
100
AcDbEntity
  8
0
100
AcDbLine
 10
623.175315
 20
1778.293319
 30
0.0
 11
813.175315
 21
1778.293319
 31
0.0
  0
LINE
  5
ED4
100
AcDbEntity
  8
0
100
AcDbLine
 10
613.175315
 20
1825.293319
 30
0.0
 11
613.175315
 21
1768.293319
 31
0.0
  0
LINE
  5
ED5
100
AcDbEntity
  8
0
100
AcDbLine
 10
623.175315
 20
1815.293319
 30
0.0
 11
623.175315
 21
1778.293319
 31
0.0
  0
LINE
  5
ED6
100
AcDbEntity
  8
0
100
AcDbLine
 10
823.175315
 20
1825.293319
 30
0.0
 11
823.175315
 21
1768.293319
 31
0.0
  0
LINE
  5
ED7
100
AcDbEntity
  8
0
100
AcDbLine
 10
813.175315
 20
1815.293319
 30
0.0
 11
813.175315
 21
1778.293319
 31
0.0
  0
LINE
  5
ED8
100
AcDbEntity
  8
0
100
AcDbLine
 10
958.175315
 20
1752.293319
 30
0.0
 11
925.675315
 21
1722.293319
 31
0.0
  0
DIMENSION
  5
F99
100
AcDbEntity
  8
0
  6
DASHED2
100
AcDbDimension
  2
*D24
 10
163.175315
 20
1894.172696
 30
0.0
 11
95.675315
 21
1906.277073
 31
0.0
 70
    32
  3
STANDARD_WS
100
AcDbAlignedDimension
 13
28.175315
 23
1853.42689
 33
0.0
 14
163.175315
 24
1854.884811
 34
0.0
100
AcDbRotatedDimension
  0
DIMENSION
  5
FA5
100
AcDbEntity
  8
0
  6
DASHED2
100
AcDbDimension
  2
*D25
 10
373.175315
 20
1894.172696
 30
0.0
 11
268.175315
 21
1906.277073
 31
0.0
 70
    32
  3
STANDARD_WS
100
AcDbAlignedDimension
 13
163.175315
 23
1854.884811
 33
0.0
 14
373.175315
 24
1851.968969
 34
0.0
100
AcDbRotatedDimension
1001
ACAD
1000
DSTYLE
1002
{
1070
    75
1070
     1
1070
   287
1070
     4
1002
}
  0
DIMENSION
  5
FB1
100
AcDbEntity
  8
0
  6
DASHED2
100
AcDbDimension
  2
*D26
 10
613.175315
 20
1894.172696
 30
0.0
 11
493.175315
 21
1906.277073
 31
0.0
 70
    32
  3
STANDARD_WS
100
AcDbAlignedDimension
 13
373.175315
 23
1851.968969
 33
0.0
 14
613.175315
 24
1851.883279
 34
0.0
100
AcDbRotatedDimension
1001
ACAD
1000
DSTYLE
1002
{
1070
    75
1070
     1
1070
   287
1070
     4
1002
}
  0
DIMENSION
  5
FBD
100
AcDbEntity
  8
0
  6
DASHED2
100
AcDbDimension
  2
*D27
 10
823.175315
 20
1894.172696
 30
0.0
 11
718.175315
 21
1906.277073
 31
0.0
 70
    32
  3
STANDARD_WS
100
AcDbAlignedDimension
 13
613.175315
 23
1851.883279
 33
0.0
 14
823.175315
 24
1851.883279
 34
0.0
100
AcDbRotatedDimension
1001
ACAD
1000
DSTYLE
1002
{
1070
    75
1070
     1
1070
   287
1070
     4
1002
}
  0
DIMENSION
  5
FC9
100
AcDbEntity
  8
0
  6
DASHED2
100
AcDbDimension
  2
*D28
 10
958.175315
 20
1894.172696
 30
0.0
 11
890.675315
 21
1906.277073
 31
0.0
 70
    32
  3
STANDARD_WS
100
AcDbAlignedDimension
 13
823.175315
 23
1851.883279
 33
0.0
 14
958.175315
 24
1853.750484
 34
0.0
100
AcDbRotatedDimension
1001
ACAD
1000
DSTYLE
1002
{
1070
    75
1070
     1
1070
   287
1070
     4
1002
}
  0
DIMENSION
  5
107B
100
AcDbEntity
  8
0
  6
DASHED2
100
AcDbDimension
  2
*D29
 10
958.175315
 20
1952.286686
 30
0.0
 11
493.175315
 21
1964.391063
 31
0.0
 70
    32
  3
STANDARD_WS
100
AcDbAlignedDimension
 13
28.175315
 23
1855.839098
 33
0.0
 14
958.175315
 24
1855.839098
 34
0.0
100
AcDbRotatedDimension
  0
LINE
  5
112D
100
AcDbEntity
  8
0
100
AcDbLine
 10
958.175346
 20
942.87257
 30
0.0
 11
958.175346
 21
842.87257
 31
0.0
  0
INSERT
  5
112F
100
AcDbEntity
  8
0
100
AcDbBlockReference
  2
A$C7BAC38FA
 10
566.356927
 20
427.379602
 30
0.0
  0
LINE
  5
1131
100
AcDbEntity
  8
0
100
AcDbLine
 10
478.175346
 20
842.87257
 30
0.0
 11
958.175346
 21
842.87257
 31
0.0
  0
LINE
  5
1132
100
AcDbEntity
  8
0
100
AcDbLine
 10
478.175346
 20
812.87257
 30
0.0
 11
958.175346
 21
812.87257
 31
0.0
  0
LINE
  5
1135
100
AcDbEntity
  8
0
100
AcDbLine
 10
528.175346
 20
587.87257
 30
0.0
 11
908.175346
 21
587.87257
 31
0.0
  0
LINE
  5
1136
100
AcDbEntity
  8
0
100
AcDbLine
 10
528.175346
 20
707.87257
 30
0.0
 11
908.175346
 21
707.87257
 31
0.0
  0
LINE
  5
1138
100
AcDbEntity
  8
0
100
AcDbLine
 10
467.920576
 20
42.87257
 30
0.0
 11
933.175346
 21
42.87257
 31
0.0
  0
LINE
  5
113F
100
AcDbEntity
  8
0
100
AcDbLine
 10
553.175346
 20
507.87257
 30
0.0
 11
553.175346
 21
461.293264
 31
0.0
  0
LINE
  5
1142
100
AcDbEntity
  8
0
100
AcDbLine
 10
953.175346
 20
812.87257
 30
0.0
 11
953.175346
 21
82.87257
 31
0.0
  0
LINE
  5
1143
100
AcDbEntity
  8
0
100
AcDbLine
 10
908.175346
 20
812.87257
 30
0.0
 11
908.175346
 21
82.87257
 31
0.0
  0
LINE
  5
1144
100
AcDbEntity
  8
0
100
AcDbLine
 10
953.175346
 20
82.87257
 30
0.0
 11
908.175346
 21
82.87257
 31
0.0
  0
CIRCLE
  5
1145
100
AcDbEntity
  8
0
100
AcDbCircle
 10
933.175346
 20
62.87257
 30
0.0
 40
20.0
  0
LINE
  5
1147
100
AcDbEntity
  8
0
100
AcDbLine
 10
799.232947
 20
493.745729
 30
0.0
 11
827.524298
 21
493.745729
 31
0.0
  0
LINE
  5
1148
100
AcDbEntity
  8
0
100
AcDbLine
 10
799.232947
 20
488.745729
 30
0.0
 11
827.524298
 21
488.745729
 31
0.0
  0
LINE
  5
1149
100
AcDbEntity
  8
0
100
AcDbLine
 10
818.483635
 20
458.595584
 30
0.0
 11
857.221724
 21
458.595584
 31
0.0
  0
LINE
  5
114A
100
AcDbEntity
  8
0
100
AcDbLine
 10
818.483635
 20
438.38906
 30
0.0
 11
849.505312
 21
438.38906
 31
0.0
  0
LINE
  5
1150
100
AcDbEntity
  8
0
100
AcDbLine
 10
665.415989
 20
438.38906
 30
0.0
 11
768.483635
 21
438.38906
 31
0.0
  0
INSERT
  5
1151
100
AcDbEntity
  8
0
100
AcDbBlockReference
  2
A$C560405F2
 10
402.230874
 20
449.816945
 30
0.0
  0
LWPOLYLINE
  5
1152
100
AcDbEntity
  8
0
100
AcDbPolyline
 90
        4
 70
     1
 43
0.0
 10
621.261396
 20
461.292511
 10
665.415989
 20
461.292511
 10
665.415989
 20
435.674354
 10
621.261396
 20
435.674354
  0
CIRCLE
  5
1153
100
AcDbEntity
  8
0
100
AcDbCircle
 10
643.215891
 20
448.48343
 30
0.0
 40
11.385849
  0
LWPOLYLINE
  5
1154
100
AcDbEntity
  8
0
100
AcDbPolyline
 90
        4
 70
     1
 43
0.0
 10
640.003773
 20
458.917359
 10
646.243991
 20
458.917359
 10
646.243991
 20
438.292708
 10
640.003773
 20
438.292708
  0
LINE
  5
1155
100
AcDbEntity
  8
0
100
AcDbLine
 10
621.261396
 20
440.38906
 30
0.0
 11
635.208474
 21
440.38906
 31
0.0
  0
LINE
  5
1156
100
AcDbEntity
  8
0
100
AcDbLine
 10
607.440994
 20
438.38906
 30
0.0
 11
621.261396
 21
438.38906
 31
0.0
  0
LINE
  5
1157
100
AcDbEntity
  8
0
100
AcDbLine
 10
651.223309
 20
440.38906
 30
0.0
 11
665.415989
 21
440.38906
 31
0.0
  0
LINE
  5
1158
100
AcDbEntity
  8
0
100
AcDbLine
 10
621.261396
 20
456.595584
 30
0.0
 11
635.226492
 21
456.595584
 31
0.0
  0
LINE
  5
1159
100
AcDbEntity
  8
0
100
AcDbLine
 10
607.697449
 20
458.595584
 30
0.0
 11
621.261396
 21
458.595584
 31
0.0
  0
LINE
  5
115A
100
AcDbEntity
  8
0
100
AcDbLine
 10
665.415989
 20
458.595584
 30
0.0
 11
738.716408
 21
458.595584
 31
0.0
  0
LINE
  5
115B
100
AcDbEntity
  8
0
100
AcDbLine
 10
651.20529
 20
456.595584
 30
0.0
 11
665.415989
 21
456.595584
 31
0.0
  0
CIRCLE
  5
115C
100
AcDbEntity
  8
0
100
AcDbCircle
 10
793.32855
 20
450.291181
 30
0.0
 40
14.19493
  0
CIRCLE
  5
115D
100
AcDbEntity
  8
0
100
AcDbCircle
 10
793.32855
 20
450.291181
 30
0.0
 40
22.19493
  0
CIRCLE
  5
115E
100
AcDbEntity
  8
0
100
AcDbCircle
 10
793.32855
 20
450.291181
 30
0.0
 40
10.734429
  0
LINE
  5
115F
100
AcDbEntity
  8
0
100
AcDbLine
 10
818.483635
 20
469.736382
 30
0.0
 11
818.483635
 21
428.865718
 31
0.0
  0
LINE
  5
1160
100
AcDbEntity
  8
0
100
AcDbLine
 10
768.483635
 20
469.736382
 30
0.0
 11
768.483635
 21
428.865718
 31
0.0
  0
CIRCLE
  5
1161
100
AcDbEntity
  8
0
100
AcDbCircle
 10
793.32855
 20
450.291181
 30
0.0
 40
24.19493
  0
LINE
  5
1162
100
AcDbEntity
  8
0
100
AcDbLine
 10
768.483635
 20
428.865718
 30
0.0
 11
782.088258
 21
428.865718
 31
0.0
  0
LINE
  5
1163
100
AcDbEntity
  8
0
100
AcDbLine
 10
804.568842
 20
428.865718
 30
0.0
 11
818.483635
 21
428.865718
 31
0.0
  0
LINE
  5
1164
100
AcDbEntity
  8
0
100
AcDbLine
 10
768.483635
 20
458.595584
 30
0.0
 11
737.959768
 21
458.595584
 31
0.0
  0
CIRCLE
  5
1165
100
AcDbEntity
  8
0
100
AcDbCircle
 10
491.922498
 20
474.816943
 30
0.0
 40
17.959436
  0
LWPOLYLINE
  5
1166
100
AcDbEntity
  8
0
100
AcDbPolyline
 90
        6
 70
     0
 43
0.0
 10
806.011095
 20
488.745729
 10
806.011095
 20
475.225659
 10
793.949227
 20
475.225659
 10
793.949227
 20
502.774147
 10
806.011095
 20
502.774147
 10
806.011095
 20
493.745729
  0
LINE
  5
1167
100
AcDbEntity
  8
0
100
AcDbLine
 10
768.483635
 20
469.736382
 30
0.0
 11
778.93137
 21
469.736382
 31
0.0
  0
LINE
  5
1168
100
AcDbEntity
  8
0
100
AcDbLine
 10
807.72573
 20
469.736382
 30
0.0
 11
818.483635
 21
469.736382
 31
0.0
  0
LINE
  5
1169
100
AcDbEntity
  8
0
100
AcDbLine
 10
799.232947
 20
493.745729
 30
0.0
 11
799.232947
 21
488.745729
 31
0.0
  0
LINE
  5
116A
100
AcDbEntity
  8
0
100
AcDbLine
 10
802.314338
 20
505.21477
 30
0.0
 11
802.314338
 21
502.8595
 31
0.0
  0
LINE
  5
116B
100
AcDbEntity
  8
0
100
AcDbLine
 10
803.296465
 20
507.57004
 30
0.0
 11
803.296465
 21
505.607312
 31
0.0
  0
LINE
  5
116C
100
AcDbEntity
  8
0
100
AcDbLine
 10
798.582253
 20
505.411044
 30
0.0
 11
798.582253
 21
503.055774
 31
0.0
  0
LINE
  5
116D
100
AcDbEntity
  8
0
100
AcDbLine
 10
796.814423
 20
507.57004
 30
0.0
 11
796.814423
 21
505.411044
 31
0.0
  0
LWPOLYLINE
  5
116E
100
AcDbEntity
  8
0
100
AcDbPolyline
 90
        4
 70
     1
 43
0.0
 10
795.243019
 20
505.411044
 10
805.064295
 20
505.411044
 10
805.064295
 20
503.055774
 10
795.243019
 20
503.055774
  0
LWPOLYLINE
  5
116F
100
AcDbEntity
  8
0
100
AcDbPolyline
 90
        4
 70
     1
 43
0.0
 10
878.044134
 20
401.516808
 10
906.114579
 20
401.516808
 10
906.114579
 20
352.089943
 10
878.044134
 20
352.089943
  0
LINE
  5
1170
100
AcDbEntity
  8
0
100
AcDbLine
 10
883.175346
 20
352.089943
 30
0.0
 11
883.175346
 21
282.87257
 31
0.0
  0
LINE
  5
1171
100
AcDbEntity
  8
0
100
AcDbLine
 10
857.221724
 20
460.595584
 30
0.0
 11
857.221724
 21
436.702795
 31
0.0
  0
ARC
  5
1172
100
AcDbEntity
  8
0
100
AcDbCircle
 10
861.942154
 20
417.362393
 30
0.0
 40
43.921086
100
AcDbArc
 50
10.393885
 51
79.606115
  0
ARC
  5
1173
100
AcDbEntity
  8
0
100
AcDbCircle
 10
854.566907
 20
409.780621
 30
0.0
 40
27.052754
100
AcDbArc
 50
2.937713
 51
84.368225
  0
LINE
  5
1174
100
AcDbEntity
  8
0
100
AcDbLine
 10
881.584109
 20
411.167083
 30
0.0
 11
905.175346
 21
411.167083
 31
0.0
  0
CIRCLE
  5
1175
100
AcDbEntity
  8
0
100
AcDbCircle
 10
892.534941
 20
379.361148
 30
0.0
 40
9.589643
  0
LINE
  5
1176
100
AcDbEntity
  8
0
100
AcDbLine
 10
883.175346
 20
404.719026
 30
0.0
 11
883.175346
 21
401.516808
 31
0.0
  0
ARC
  5
1177
100
AcDbEntity
  8
0
100
AcDbCircle
 10
854.566907
 20
409.780621
 30
0.0
 40
29.052754
100
AcDbArc
 50
84.757044
 51
100.033317
  0
ARC
  5
1178
100
AcDbEntity
  8
0
100
AcDbCircle
 10
854.566907
 20
409.780621
 30
0.0
 40
29.052754
100
AcDbArc
 50
349.966683
 51
2.735321
  0
LINE
  5
1179
100
AcDbEntity
  8
0
100
AcDbLine
 10
903.175346
 20
411.167083
 30
0.0
 11
903.175346
 21
401.516808
 31
0.0
  0
CIRCLE
  5
117A
100
AcDbEntity
  8
0
100
AcDbCircle
 10
892.534941
 20
379.361148
 30
0.0
 40
6.589643
  0
LINE
  5
117B
100
AcDbEntity
  8
0
100
AcDbLine
 10
905.175346
 20
424.925551
 30
0.0
 11
905.175346
 21
411.167083
 31
0.0
  0
LINE
  5
117C
100
AcDbEntity
  8
0
100
AcDbLine
 10
883.175346
 20
507.87257
 30
0.0
 11
883.175346
 21
458.595584
 31
0.0
  0
ARC
  5
117D
100
AcDbEntity
  8
0
100
AcDbCircle
 10
827.524298
 20
491.245729
 30
0.0
 40
2.5
100
AcDbArc
 50
270.0
 51
90.0
  0
LINE
  5
117E
100
AcDbEntity
  8
0
100
AcDbLine
 10
857.221724
 20
460.595584
 30
0.0
 11
869.505312
 21
460.595584
 31
0.0
  0
LINE
  5
117F
100
AcDbEntity
  8
0
100
AcDbLine
 10
658.175346
 20
672.675558
 30
0.0
 11
778.175346
 21
672.675558
 31
0.0
  0
LINE
  5
1180
100
AcDbEntity
  8
0
100
AcDbLine
 10
658.175346
 20
682.675558
 30
0.0
 11
778.175346
 21
682.675558
 31
0.0
  0
ARC
  5
1181
100
AcDbEntity
  8
0
100
AcDbCircle
 10
658.175346
 20
677.675558
 30
0.0
 40
5.0
100
AcDbArc
 50
90.0
 51
270.0
  0
CIRCLE
  5
1182
100
AcDbEntity
  8
0
100
AcDbCircle
 10
718.175346
 20
644.044346
 30
0.0
 40
15.0
  0
ARC
  5
1183
100
AcDbEntity
  8
0
100
AcDbCircle
 10
778.175346
 20
677.675558
 30
0.0
 40
5.0
100
AcDbArc
 50
270.0
 51
90.0
  0
LINE
  5
1184
100
AcDbEntity
  8
0
100
AcDbLine
 10
958.175346
 20
842.87257
 30
0.0
 11
958.175346
 21
812.87257
 31
0.0
  0
LINE
  5
1185
100
AcDbEntity
  8
0
100
AcDbLine
 10
478.175346
 20
942.87257
 30
0.0
 11
958.175346
 21
942.87257
 31
0.0
  0
DIMENSION
  5
1187
100
AcDbEntity
  8
0
  6
DASHED2
100
AcDbDimension
  2
*D30
 10
868.401448
 20
942.87257
 30
0.0
 11
856.297071
 21
972.87257
 31
0.0
 70
    32
  3
STANDARD_WS
100
AcDbAlignedDimension
 13
834.624976
 23
1002.87257
 33
0.0
 14
823.175346
 24
942.87257
 34
0.0
 50
90.0
100
AcDbRotatedDimension
  0
LINE
  5
1188
100
AcDbEntity
  8
0
100
AcDbLine
 10
613.175346
 20
1002.87257
 30
0.0
 11
823.175346
 21
1002.87257
 31
0.0
  0
LINE
  5
1189
100
AcDbEntity
  8
0
100
AcDbLine
 10
613.175346
 20
1002.87257
 30
0.0
 11
613.175346
 21
942.87257
 31
0.0
  0
LINE
  5
118A
100
AcDbEntity
  8
0
100
AcDbLine
 10
823.175346
 20
1002.87257
 30
0.0
 11
823.175346
 21
942.87257
 31
0.0
  0
LINE
  5
11B9
100
AcDbEntity
  8
0
100
AcDbLine
 10
458.175346
 20
707.87257
 30
0.0
 11
528.175346
 21
707.87257
 31
0.0
  0
LINE
  5
11BA
100
AcDbEntity
  8
0
100
AcDbLine
 10
458.175346
 20
587.87257
 30
0.0
 11
528.175346
 21
587.87257
 31
0.0
  0
LINE
  5
11BB
100
AcDbEntity
  8
0
100
AcDbLine
 10
528.175346
 20
707.87257
 30
0.0
 11
528.175346
 21
587.87257
 31
0.0
  0
LINE
  5
11BC
100
AcDbEntity
  8
0
100
AcDbLine
 10
458.175346
 20
707.87257
 30
0.0
 11
458.175346
 21
587.87257
 31
0.0
  0
LINE
  5
11C7
100
AcDbEntity
  8
0
100
AcDbLine
 10
78.175346
 20
85.87257
 30
0.0
 11
908.175346
 21
85.87257
 31
0.0
  0
LINE
  5
11D4
100
AcDbEntity
  8
0
100
AcDbLine
 10
533.243133
 20
507.6586
 30
0.0
 11
533.243133
 21
461.741432
 31
0.0
  0
LINE
  5
11D5
100
AcDbEntity
  8
0
100
AcDbLine
 10
553.243133
 20
507.6586
 30
0.0
 11
553.243133
 21
461.741432
 31
0.0
  0
DIMENSION
  5
126A
100
AcDbEntity
  8
0
  6
DASHED2
100
AcDbDimension
  2
*D36
 10
958.175346
 20
1076.609099
 30
0.0
 11
493.175346
 21
1088.713476
 31
0.0
 70
    32
  3
STANDARD_WS
100
AcDbAlignedDimension
 13
28.175346
 23
964.124517
 33
0.0
 14
958.175346
 24
961.1644
 34
0.0
100
AcDbRotatedDimension
  0
LEADER
  5
1293
100
AcDbEntity
  8
0
100
AcDbLeader
  3
STANDARD_WS
 73
     0
 74
     0
 75
     1
 40
25.568182
 41
99.204545
 76
     3
 10
643.323305
 20
430.715025
 30
0.0
 10
659.568998
 20
389.079848
 30
0.0
 10
667.986507
 20
389.079848
 30
0.0
 77
   256
340
1294
  0
MTEXT
  5
1294
102
{ACAD_REACTORS
330
1293
102
}
100
AcDbEntity
  8
0
100
AcDbMText
 10
670.090884
 20
403.968316
 30
0.0
 40
20.0
 41
0.0
 71
     4
 72
     1
  1
\A1;\fMS UI Gothic|b0|i0|c128|p50;ガスコック
  0
POLYLINE
  5
1295
100
AcDbEntity
  8
0
100
AcDb3dPolyline
 66
     1
 10
0.0
 20
0.0
 30
0.0
 70
     8
  0
VERTEX
  5
1296
100
AcDbEntity
  8
0
100
AcDbVertex
100
AcDb3dPolylineVertex
 10
113.873865
 20
1650.328246
 30
0.0
 70
    32
  0
VERTEX
  5
12A0
100
AcDbEntity
  8
0
100
AcDbVertex
100
AcDb3dPolylineVertex
 10
113.873865
 20
1650.328246
 30
0.0
 70
    32
  0
SEQEND
  5
1297
100
AcDbEntity
  8
0
  0
POLYLINE
  5
1298
100
AcDbEntity
  8
0
100
AcDb3dPolyline
 66
     1
 10
0.0
 20
0.0
 30
0.0
 70
     8
  0
VERTEX
  5
1299
100
AcDbEntity
  8
0
100
AcDbVertex
100
AcDb3dPolylineVertex
 10
119.450689
 20
1683.763122
 30
0.0
 70
    32
  0
VERTEX
  5
12A1
100
AcDbEntity
  8
0
100
AcDbVertex
100
AcDb3dPolylineVertex
 10
119.450689
 20
1683.763122
 30
0.0
 70
    32
  0
SEQEND
  5
129A
100
AcDbEntity
  8
0
  0
DIMENSION
  5
12AF
100
AcDbEntity
  8
0
  6
DASHED2
100
AcDbDimension
  2
*D38
 10
925.675315
 20
1363.585451
 30
0.0
 11
493.175315
 21
1375.689829
 31
0.0
 70
    32
  1
860
  3
STANDARD_WS
100
AcDbAlignedDimension
 13
60.675315
 23
1292.293319
 33
0.0
 14
925.675315
 24
1292.293319
 34
0.0
100
AcDbRotatedDimension
  0
LINE
  5
12C6
100
AcDbEntity
  8
0
100
AcDbLine
 10
367.672559
 20
461.595584
 30
0.0
 11
327.161062
 21
461.595584
 31
0.0
  0
LINE
  5
12C7
100
AcDbEntity
  8
0
100
AcDbLine
 10
327.161062
 20
435.38906
 30
0.0
 11
367.672559
 21
435.38906
 31
0.0
  0
LINE
  5
12C8
100
AcDbEntity
  8
0
100
AcDbLine
 10
327.161062
 20
461.595584
 30
0.0
 11
327.161062
 21
435.38906
 31
0.0
  0
LINE
  5
12C9
100
AcDbEntity
  8
0
100
AcDbLine
 10
367.672559
 20
461.595584
 30
0.0
 11
367.672559
 21
435.38906
 31
0.0
  0
LINE
  5
12CA
100
AcDbEntity
  8
0
100
AcDbLine
 10
327.161062
 20
458.595584
 30
0.0
 11
287.959768
 21
458.595584
 31
0.0
  0
LINE
  5
12CB
100
AcDbEntity
  8
0
100
AcDbLine
 10
367.672559
 20
438.38906
 30
0.0
 11
430.071994
 21
438.38906
 31
0.0
  0
LWPOLYLINE
  5
12CC
100
AcDbEntity
  8
0
100
AcDbPolyline
 90
        4
 70
     1
 43
0.0
 10
344.597097
 20
474.539292
 10
355.450319
 20
474.539292
 10
355.450319
 20
461.999481
 10
344.597097
 20
461.999481
  0
INSERT
  5
12D2
100
AcDbEntity
  8
0
100
AcDbBlockReference
  2
A$C2BBA61E4
 10
429.985153
 20
427.363402
 30
0.0
  0
INSERT
  5
12E7
100
AcDbEntity
  8
0
100
AcDbBlockReference
  2
A$C431E75CC
 10
523.542589
 20
435.198664
 30
0.0
  0
LINE
  5
12EB
100
AcDbEntity
  8
0
100
AcDbLine
 10
523.268219
 20
438.356275
 30
0.0
 11
470.917757
 21
438.356275
 31
0.0
  0
LINE
  5
12EC
100
AcDbEntity
  8
0
100
AcDbLine
 10
523.824253
 20
458.820208
 30
0.0
 11
512.147597
 21
458.820208
 31
0.0
  0
LINE
  5
12ED
100
AcDbEntity
  8
0
100
AcDbLine
 10
563.858523
 20
458.264583
 30
0.0
 11
566.082647
 21
458.264583
 31
0.0
  0
LINE
  5
12EE
100
AcDbEntity
  8
0
100
AcDbLine
 10
563.858523
 20
438.26218
 30
0.0
 11
566.082647
 21
438.26218
 31
0.0
  0
ENDSEC
  0
SECTION
  2
OBJECTS
  0
DICTIONARY
  5
C
100
AcDbDictionary
  3
ACAD_GROUP
350
D
  3
ACAD_MLINESTYLE
350
1B
  3
ACDBVARIABLEDICTIONARY
350
33
  3
CONTENTDICTIONARY
350
23
  0
DICTIONARY
  5
D
102
{ACAD_REACTORS
330
C
102
}
100
AcDbDictionary
  0
DICTIONARY
  5
1B
102
{ACAD_REACTORS
330
C
102
}
100
AcDbDictionary
  3
STANDARD
350
1C
  0
DICTIONARY
  5
33
102
{ACAD_REACTORS
330
C
102
}
100
AcDbDictionary
  3
DIMADEC
350
34
  0
DICTIONARY
  5
23
102
{ACAD_REACTORS
330
C
102
}
100
AcDbDictionary
  0
MLINESTYLE
  5
1C
102
{ACAD_REACTORS
330
1B
102
}
100
AcDbMlineStyle
  2
STANDARD
 70
     0
  3

 62
   256
 51
90.0
 52
90.0
 71
     2
 49
0.5
 62
   256
  6
BYLAYER
 49
-0.5
 62
   256
  6
BYLAYER
  0
DICTIONARYVAR
  5
34
102
{ACAD_REACTORS
330
33
102
}
100
DictionaryVariables
280
     0
  1
0
  0
ENDSEC
  0
EOF
