  0
SECTION
  2
HEADER
  9
$ACADVER
  1
AC1014
  9
$ACADMAINTVER
 70
     0
  9
$DWGCODEPAGE
  3
ANSI_932
  9
$INSBASE
 10
0.0
 20
0.0
 30
0.0
  9
$EXTMIN
 10
-473.980063
 20
-271.990411
 30
0.0
  9
$EXTMAX
 10
2716.199534
 20
2100.803126
 30
0.0
  9
$LIMMIN
 10
0.0
 20
0.0
  9
$LIMMAX
 10
2000.0
 20
1000.0
  9
$ORTHOMODE
 70
     1
  9
$REGENMODE
 70
     1
  9
$FILLMODE
 70
     1
  9
$QTEXTMODE
 70
     0
  9
$MIRRTEXT
 70
     1
  9
$DRAGMODE
 70
     2
  9
$LTSCALE
 40
3.367003
  9
$OSMODE
 70
     0
  9
$ATTMODE
 70
     1
  9
$TEXTSIZE
 40
20.0
  9
$TRACEWID
 40
1.0
  9
$TEXTSTYLE
  7
STANDARD
  9
$CLAYER
  8
0
  9
$CELTYPE
  6
BYLAYER
  9
$CECOLOR
 62
   256
  9
$CELTSCALE
 40
1.0
  9
$DELOBJ
 70
     1
  9
$DISPSILH
 70
     0
  9
$DIMSCALE
 40
3.367003
  9
$DIMASZ
 40
2.5
  9
$DIMEXO
 40
0.625
  9
$DIMDLI
 40
3.75
  9
$DIMRND
 40
0.0
  9
$DIMDLE
 40
0.0
  9
$DIMEXE
 40
1.25
  9
$DIMTP
 40
0.0
  9
$DIMTM
 40
0.0
  9
$DIMTXT
 40
2.5
  9
$DIMCEN
 40
2.5
  9
$DIMTSZ
 40
0.0
  9
$DIMTOL
 70
     0
  9
$DIMLIM
 70
     0
  9
$DIMTIH
 70
     0
  9
$DIMTOH
 70
     0
  9
$DIMSE1
 70
     0
  9
$DIMSE2
 70
     0
  9
$DIMTAD
 70
     1
  9
$DIMZIN
 70
     8
  9
$DIMBLK
  1

  9
$DIMASO
 70
     1
  9
$DIMSHO
 70
     1
  9
$DIMPOST
  1

  9
$DIMAPOST
  1

  9
$DIMALT
 70
     0
  9
$DIMALTD
 70
     4
  9
$DIMALTF
 40
0.0394
  9
$DIMLFAC
 40
1.0
  9
$DIMTOFL
 70
     1
  9
$DIMTVP
 40
0.0
  9
$DIMTIX
 70
     0
  9
$DIMSOXD
 70
     0
  9
$DIMSAH
 70
     0
  9
$DIMBLK1
  1

  9
$DIMBLK2
  1

  9
$DIMSTYLE
  2
STANDARD_WS
  9
$DIMCLRD
 70
     0
  9
$DIMCLRE
 70
     0
  9
$DIMCLRT
 70
     0
  9
$DIMTFAC
 40
1.0
  9
$DIMGAP
 40
0.625
  9
$DIMJUST
 70
     0
  9
$DIMSD1
 70
     0
  9
$DIMSD2
 70
     0
  9
$DIMTOLJ
 70
     1
  9
$DIMTZIN
 70
     0
  9
$DIMALTZ
 70
     0
  9
$DIMALTTZ
 70
     0
  9
$DIMFIT
 70
     3
  9
$DIMUPT
 70
     0
  9
$DIMUNIT
 70
     2
  9
$DIMDEC
 70
     4
  9
$DIMTDEC
 70
     4
  9
$DIMALTU
 70
     8
  9
$DIMALTTD
 70
     4
  9
$DIMTXSTY
  7
STANDARD
  9
$DIMAUNIT
 70
     0
  9
$LUNITS
 70
     2
  9
$LUPREC
 70
     4
  9
$SKETCHINC
 40
1.0
  9
$FILLETRAD
 40
33.670034
  9
$AUNITS
 70
     0
  9
$AUPREC
 70
     0
  9
$MENU
  1
acad
  9
$ELEVATION
 40
0.0
  9
$PELEVATION
 40
0.0
  9
$THICKNESS
 40
0.0
  9
$LIMCHECK
 70
     0
  9
$BLIPMODE
 70
     0
  9
$CHAMFERA
 40
33.670034
  9
$CHAMFERB
 40
33.670034
  9
$CHAMFERC
 40
67.340067
  9
$CHAMFERD
 40
0.0
  9
$SKPOLY
 70
     0
  9
$TDCREATE
 40
2452618.701731597
  9
$TDUPDATE
 40
2453762.531943865
  9
$TDINDWG
 40
0.4207788194
  9
$TDUSRTIMER
 40
0.4207788194
  9
$USRTIMER
 70
     1
  9
$ANGBASE
 50
0.0
  9
$ANGDIR
 70
     0
  9
$PDMODE
 70
     0
  9
$PDSIZE
 40
0.0
  9
$PLINEWID
 40
0.0
  9
$COORDS
 70
     1
  9
$SPLFRAME
 70
     0
  9
$SPLINETYPE
 70
     6
  9
$SPLINESEGS
 70
     8
  9
$ATTDIA
 70
     0
  9
$ATTREQ
 70
     1
  9
$HANDLING
 70
     1
  9
$HANDSEED
  5
101B
  9
$SURFTAB1
 70
     6
  9
$SURFTAB2
 70
     6
  9
$SURFTYPE
 70
     6
  9
$SURFU
 70
     6
  9
$SURFV
 70
     6
  9
$UCSNAME
  2

  9
$UCSORG
 10
0.0
 20
0.0
 30
0.0
  9
$UCSXDIR
 10
1.0
 20
0.0
 30
0.0
  9
$UCSYDIR
 10
0.0
 20
1.0
 30
0.0
  9
$PUCSNAME
  2

  9
$PUCSORG
 10
0.0
 20
0.0
 30
0.0
  9
$PUCSXDIR
 10
1.0
 20
0.0
 30
0.0
  9
$PUCSYDIR
 10
0.0
 20
1.0
 30
0.0
  9
$USERI1
 70
     0
  9
$USERI2
 70
     0
  9
$USERI3
 70
     0
  9
$USERI4
 70
     0
  9
$USERI5
 70
     0
  9
$USERR1
 40
0.0
  9
$USERR2
 40
0.0
  9
$USERR3
 40
0.0
  9
$USERR4
 40
0.0
  9
$USERR5
 40
0.0
  9
$WORLDVIEW
 70
     1
  9
$SHADEDGE
 70
     3
  9
$SHADEDIF
 70
    70
  9
$TILEMODE
 70
     1
  9
$MAXACTVP
 70
    48
  9
$PINSBASE
 10
0.0
 20
0.0
 30
0.0
  9
$PLIMCHECK
 70
     0
  9
$PEXTMIN
 10
1.000000E+20
 20
1.000000E+20
 30
1.000000E+20
  9
$PEXTMAX
 10
-1.000000E+20
 20
-1.000000E+20
 30
-1.000000E+20
  9
$PLIMMIN
 10
0.0
 20
0.0
  9
$PLIMMAX
 10
420.0
 20
297.0
  9
$UNITMODE
 70
     0
  9
$VISRETAIN
 70
     1
  9
$PLINEGEN
 70
     0
  9
$PSLTSCALE
 70
     1
  9
$TREEDEPTH
 70
  3020
  9
$PICKSTYLE
 70
     1
  9
$CMLSTYLE
  2
STANDARD
  9
$CMLJUST
 70
     0
  9
$CMLSCALE
 40
20.0
  9
$PROXYGRAPHICS
 70
     1
  9
$MEASUREMENT
 70
     1
  0
ENDSEC
  0
SECTION
  2
CLASSES
  0
CLASS
  1
DICTIONARYVAR
  2
AcDbDictionaryVar
  3
"AutoCAD"
 90
        0
280
     0
281
     0
  0
CLASS
  1
LWPOLYLINE
  2
AcDbPolyline
  3
"AutoCAD"
 90
        0
280
     0
281
     1
  0
ENDSEC
  0
SECTION
  2
TABLES
  0
TABLE
  2
VPORT
  5
8
100
AcDbSymbolTable
 70
     1
  0
VPORT
  5
1015
100
AcDbSymbolTableRecord
100
AcDbViewportTableRecord
  2
*ACTIVE
 70
     0
 10
0.0
 20
0.0
 11
1.0
 21
1.0
 12
1439.900358
 22
1161.953609
 13
0.0
 23
0.0
 14
34.0
 24
34.0
 15
34.0
 25
34.0
 16
0.0
 26
0.0
 36
1.0
 17
0.0
 27
0.0
 37
0.0
 40
2993.513329
 41
1.681818
 42
50.0
 43
0.0
 44
0.0
 50
0.0
 51
0.0
 71
     0
 72
   100
 73
     1
 74
     1
 75
     0
 76
     1
 77
     0
 78
     0
  0
ENDTAB
  0
TABLE
  2
LTYPE
  5
5
100
AcDbSymbolTable
 70
     4
  0
LTYPE
  5
12
100
AcDbSymbolTableRecord
100
AcDbLinetypeTableRecord
  2
BYBLOCK
 70
     0
  3

 72
    65
 73
     0
 40
0.0
  0
LTYPE
  5
13
100
AcDbSymbolTableRecord
100
AcDbLinetypeTableRecord
  2
BYLAYER
 70
     0
  3

 72
    65
 73
     0
 40
0.0
  0
LTYPE
  5
14
100
AcDbSymbolTableRecord
100
AcDbLinetypeTableRecord
  2
CONTINUOUS
 70
     0
  3
Solid line
 72
    65
 73
     0
 40
0.0
  0
LTYPE
  5
38
100
AcDbSymbolTableRecord
100
AcDbLinetypeTableRecord
  2
CENTER2
 70
     0
  3
Center (.5x) ___ _ ___ _ ___ _ ___ _ ___ _ ___
 72
    65
 73
     4
 40
28.575
 49
19.05
 74
     0
 49
-3.175
 74
     0
 49
3.175
 74
     0
 49
-3.175
 74
     0
  0
LTYPE
  5
39
100
AcDbSymbolTableRecord
100
AcDbLinetypeTableRecord
  2
DASHED2
 70
     0
  3
Dashed (.5x) _ _ _ _ _ _ _ _ _ _ _ _ _ _ _ _ _
 72
    65
 73
     2
 40
9.525
 49
6.35
 74
     0
 49
-3.175
 74
     0
  0
LTYPE
  5
3A
100
AcDbSymbolTableRecord
100
AcDbLinetypeTableRecord
  2
HIDDEN2
 70
     0
  3
Hidden (.5x) _ _ _ _ _ _ _ _ _ _ _ _ _ _ _ _ _
 72
    65
 73
     2
 40
4.7625
 49
3.175
 74
     0
 49
-1.5875
 74
     0
  0
ENDTAB
  0
TABLE
  2
LAYER
  5
2
100
AcDbSymbolTable
 70
     2
  0
LAYER
  5
E
100
AcDbSymbolTableRecord
100
AcDbLayerTableRecord
  2
0
 70
     0
 62
     7
  6
CONTINUOUS
  0
LAYER
  5
13E
100
AcDbSymbolTableRecord
100
AcDbLayerTableRecord
  2
DEFPOINTS
 70
     0
 62
     7
  6
CONTINUOUS
  0
ENDTAB
  0
TABLE
  2
STYLE
  5
3
100
AcDbSymbolTable
 70
     2
  0
STYLE
  5
F
100
AcDbSymbolTableRecord
100
AcDbTextStyleTableRecord
  2
STANDARD
 70
     0
 40
20.0
 41
1.0
 50
0.0
 71
     0
 42
20.0
  3
txt.shx
  4

  0
STYLE
  5
37
100
AcDbSymbolTableRecord
100
AcDbTextStyleTableRecord
  2

 70
     1
 40
0.0
 41
1.0
 50
0.0
 71
     0
 42
8.417508
  3
ltypeshp.shx
  4

  0
ENDTAB
  0
TABLE
  2
VIEW
  5
6
100
AcDbSymbolTable
 70
     0
  0
ENDTAB
  0
TABLE
  2
UCS
  5
7
100
AcDbSymbolTable
 70
     0
  0
ENDTAB
  0
TABLE
  2
APPID
  5
9
100
AcDbSymbolTable
 70
     3
  0
APPID
  5
10
100
AcDbSymbolTableRecord
100
AcDbRegAppTableRecord
  2
ACAD
 70
     0
  0
APPID
  5
24
100
AcDbSymbolTableRecord
100
AcDbRegAppTableRecord
  2
CONTENTTABDATA
 70
     0
  0
APPID
  5
25
100
AcDbSymbolTableRecord
100
AcDbRegAppTableRecord
  2
CONTENTCURRENTTAB
 70
     0
  0
ENDTAB
  0
TABLE
  2
DIMSTYLE
  5
A
100
AcDbSymbolTable
 70
     2
  0
DIMSTYLE
105
1D
100
AcDbSymbolTableRecord
100
AcDbDimStyleTableRecord
  2
STANDARD
 70
     0
  3

  4

  5

  6

  7

 40
1.0
 41
0.18
 42
0.0625
 43
0.38
 44
0.18
 45
0.0
 46
0.0
 47
0.0
 48
0.0
140
0.18
141
0.09
142
0.0
143
25.4
144
1.0
145
0.0
146
1.0
147
0.09
 71
     0
 72
     0
 73
     1
 74
     1
 75
     0
 76
     0
 77
     0
 78
     0
170
     0
171
     2
172
     0
173
     0
174
     0
175
     0
176
     0
177
     0
178
     0
270
     2
271
     4
272
     4
273
     2
274
     2
340
F
275
     0
280
     0
281
     0
282
     0
283
     1
284
     0
285
     0
286
     0
287
     3
288
     0
  0
DIMSTYLE
105
35
102
{ACAD_REACTORS
330
7E9
330
8E6
330
916
330
963
330
9E1
330
9EE
330
A23
330
A55
330
A62
330
A6E
330
A7A
330
A87
330
A99
330
CDC
330
D2A
330
D37
330
E42
330
EC2
330
F0C
330
F45
330
F51
330
F6D
330
FE5
102
}
100
AcDbSymbolTableRecord
100
AcDbDimStyleTableRecord
  2
STANDARD_WS
 70
     0
  3

  4

  5

  6

  7

 40
3.367003
 41
2.5
 42
0.625
 43
3.75
 44
1.25
 45
0.0
 46
0.0
 47
0.0
 48
0.0
140
2.5
141
2.5
142
0.0
143
0.0394
144
1.0
145
0.0
146
1.0
147
0.625
 71
     0
 72
     0
 73
     0
 74
     0
 75
     0
 76
     0
 77
     1
 78
     8
170
     0
171
     4
172
     1
173
     0
174
     0
175
     0
176
     0
177
     0
178
     0
270
     2
271
     4
272
     4
273
     8
274
     4
340
F
275
     0
280
     0
281
     0
282
     0
283
     1
284
     0
285
     0
286
     0
287
     3
288
     0
  0
ENDTAB
  0
TABLE
  2
BLOCK_RECORD
  5
1
100
AcDbSymbolTable
 70
    28
  0
BLOCK_RECORD
  5
18
100
AcDbSymbolTableRecord
100
AcDbBlockTableRecord
  2
*MODEL_SPACE
  0
BLOCK_RECORD
  5
15
100
AcDbSymbolTableRecord
100
AcDbBlockTableRecord
  2
*PAPER_SPACE
  0
BLOCK_RECORD
  5
114
100
AcDbSymbolTableRecord
100
AcDbBlockTableRecord
  2
A$C731C1FEF
  0
BLOCK_RECORD
  5
17A
100
AcDbSymbolTableRecord
100
AcDbBlockTableRecord
  2
A$C3D4A0DE5
  0
BLOCK_RECORD
  5
1AD
100
AcDbSymbolTableRecord
100
AcDbBlockTableRecord
  2
A$C061D45EC
  0
BLOCK_RECORD
  5
7DD
100
AcDbSymbolTableRecord
100
AcDbBlockTableRecord
  2
*D3
  0
BLOCK_RECORD
  5
8DA
100
AcDbSymbolTableRecord
100
AcDbBlockTableRecord
  2
*D4
  0
BLOCK_RECORD
  5
90A
100
AcDbSymbolTableRecord
100
AcDbBlockTableRecord
  2
*D5
  0
BLOCK_RECORD
  5
957
100
AcDbSymbolTableRecord
100
AcDbBlockTableRecord
  2
*D6
  0
BLOCK_RECORD
  5
984
100
AcDbSymbolTableRecord
100
AcDbBlockTableRecord
  2
A$C4F2B35B1
  0
BLOCK_RECORD
  5
9CE
100
AcDbSymbolTableRecord
100
AcDbBlockTableRecord
  2
A$C560405F2
  0
BLOCK_RECORD
  5
9D5
100
AcDbSymbolTableRecord
100
AcDbBlockTableRecord
  2
*D9
  0
BLOCK_RECORD
  5
9E2
100
AcDbSymbolTableRecord
100
AcDbBlockTableRecord
  2
*D10
  0
BLOCK_RECORD
  5
A17
100
AcDbSymbolTableRecord
100
AcDbBlockTableRecord
  2
*D11
  0
BLOCK_RECORD
  5
A49
100
AcDbSymbolTableRecord
100
AcDbBlockTableRecord
  2
*D12
  0
BLOCK_RECORD
  5
A56
100
AcDbSymbolTableRecord
100
AcDbBlockTableRecord
  2
*D13
  0
BLOCK_RECORD
  5
A63
100
AcDbSymbolTableRecord
100
AcDbBlockTableRecord
  2
*D14
  0
BLOCK_RECORD
  5
A6F
100
AcDbSymbolTableRecord
100
AcDbBlockTableRecord
  2
*D15
  0
BLOCK_RECORD
  5
A7B
100
AcDbSymbolTableRecord
100
AcDbBlockTableRecord
  2
*D16
  0
BLOCK_RECORD
  5
A8D
100
AcDbSymbolTableRecord
100
AcDbBlockTableRecord
  2
*D17
  0
BLOCK_RECORD
  5
CD0
100
AcDbSymbolTableRecord
100
AcDbBlockTableRecord
  2
*D18
  0
BLOCK_RECORD
  5
D1E
100
AcDbSymbolTableRecord
100
AcDbBlockTableRecord
  2
*D19
  0
BLOCK_RECORD
  5
D2B
100
AcDbSymbolTableRecord
100
AcDbBlockTableRecord
  2
*D20
  0
BLOCK_RECORD
  5
E36
100
AcDbSymbolTableRecord
100
AcDbBlockTableRecord
  2
*D21
  0
BLOCK_RECORD
  5
EB6
100
AcDbSymbolTableRecord
100
AcDbBlockTableRecord
  2
*D22
  0
BLOCK_RECORD
  5
EFF
100
AcDbSymbolTableRecord
100
AcDbBlockTableRecord
  2
*D23
  0
BLOCK_RECORD
  5
F39
100
AcDbSymbolTableRecord
100
AcDbBlockTableRecord
  2
*D24
  0
BLOCK_RECORD
  5
F46
100
AcDbSymbolTableRecord
100
AcDbBlockTableRecord
  2
*D25
  0
BLOCK_RECORD
  5
F60
100
AcDbSymbolTableRecord
100
AcDbBlockTableRecord
  2
*D26
  0
BLOCK_RECORD
  5
FD9
100
AcDbSymbolTableRecord
100
AcDbBlockTableRecord
  2
*D27
  0
ENDTAB
  0
ENDSEC
  0
SECTION
  2
BLOCKS
  0
BLOCK
  5
19
100
AcDbEntity
  8
0
100
AcDbBlockBegin
  2
*MODEL_SPACE
 70
     0
 10
0.0
 20
0.0
 30
0.0
  3
*MODEL_SPACE
  1

  0
ENDBLK
  5
1A
100
AcDbEntity
  8
0
100
AcDbBlockEnd
  0
BLOCK
  5
16
100
AcDbEntity
 67
     1
  8
0
100
AcDbBlockBegin
  2
*PAPER_SPACE
 70
     0
 10
0.0
 20
0.0
 30
0.0
  3
*PAPER_SPACE
  1

  0
ENDBLK
  5
17
100
AcDbEntity
 67
     1
  8
0
100
AcDbBlockEnd
  0
BLOCK
  5
132
100
AcDbEntity
  8
0
100
AcDbBlockBegin
  2
A$C731C1FEF
 70
     0
 10
0.0
 20
0.0
 30
0.0
  3
A$C731C1FEF
  1

  0
LINE
  5
115
100
AcDbEntity
  8
0
100
AcDbLine
 10
0.0
 20
66.0
 30
0.0
 11
52.5
 21
66.0
 31
0.0
  0
LINE
  5
116
100
AcDbEntity
  8
0
100
AcDbLine
 10
0.0
 20
62.0
 30
0.0
 11
52.5
 21
62.0
 31
0.0
  0
LINE
  5
117
100
AcDbEntity
  8
0
100
AcDbLine
 10
0.0
 20
66.0
 30
0.0
 11
0.0
 21
62.0
 31
0.0
  0
LINE
  5
118
100
AcDbEntity
  8
0
100
AcDbLine
 10
90.0
 20
48.0
 30
0.0
 11
90.0
 21
0.0
 31
0.0
  0
LINE
  5
119
100
AcDbEntity
  8
0
100
AcDbLine
 10
115.5
 20
48.0
 30
0.0
 11
115.5
 21
0.0
 31
0.0
  0
LINE
  5
11A
100
AcDbEntity
  8
0
100
AcDbLine
 10
64.5
 20
48.0
 30
0.0
 11
64.5
 21
0.0
 31
0.0
  0
LINE
  5
11B
100
AcDbEntity
  8
0
100
AcDbLine
 10
52.5
 20
48.0
 30
0.0
 11
52.5
 21
0.0
 31
0.0
  0
LINE
  5
11C
100
AcDbEntity
  8
0
100
AcDbLine
 10
127.5
 20
48.0
 30
0.0
 11
127.5
 21
0.0
 31
0.0
  0
LINE
  5
11D
100
AcDbEntity
  8
0
100
AcDbLine
 10
64.5
 20
2.0
 30
0.0
 11
90.0
 21
0.0
 31
0.0
  0
LINE
  5
11E
100
AcDbEntity
  8
0
100
AcDbLine
 10
52.5
 20
0.0
 30
0.0
 11
64.5
 21
0.0
 31
0.0
  0
LINE
  5
11F
100
AcDbEntity
  8
0
100
AcDbLine
 10
52.5
 20
12.0
 30
0.0
 11
64.5
 21
12.0
 31
0.0
  0
LINE
  5
120
100
AcDbEntity
  8
0
100
AcDbLine
 10
85.0
 20
0.392157
 30
0.0
 11
85.0
 21
0.0
 31
0.0
  0
LINE
  5
121
100
AcDbEntity
  8
0
100
AcDbLine
 10
90.0
 20
0.0
 30
0.0
 11
115.5
 21
2.0
 31
0.0
  0
LINE
  5
122
100
AcDbEntity
  8
0
100
AcDbLine
 10
95.0
 20
0.392157
 30
0.0
 11
95.0
 21
0.0
 31
0.0
  0
LINE
  5
123
100
AcDbEntity
  8
0
100
AcDbLine
 10
115.5
 20
0.0
 30
0.0
 11
127.5
 21
0.0
 31
0.0
  0
LINE
  5
124
100
AcDbEntity
  8
0
100
AcDbLine
 10
115.5
 20
12.0
 30
0.0
 11
127.5
 21
12.0
 31
0.0
  0
LINE
  5
125
100
AcDbEntity
  8
0
100
AcDbLine
 10
95.0
 20
62.0
 30
0.0
 11
95.0
 21
47.607843
 31
0.0
  0
LINE
  5
126
100
AcDbEntity
  8
0
100
AcDbLine
 10
85.0
 20
62.0
 30
0.0
 11
85.0
 21
47.607843
 31
0.0
  0
LINE
  5
127
100
AcDbEntity
  8
0
100
AcDbLine
 10
64.5
 20
46.0
 30
0.0
 11
90.0
 21
48.0
 31
0.0
  0
LINE
  5
128
100
AcDbEntity
  8
0
100
AcDbLine
 10
52.5
 20
36.0
 30
0.0
 11
64.5
 21
36.0
 31
0.0
  0
LINE
  5
129
100
AcDbEntity
  8
0
100
AcDbLine
 10
52.5
 20
48.0
 30
0.0
 11
64.5
 21
48.0
 31
0.0
  0
LINE
  5
12A
100
AcDbEntity
  8
0
100
AcDbLine
 10
90.0
 20
48.0
 30
0.0
 11
115.5
 21
46.0
 31
0.0
  0
LINE
  5
12B
100
AcDbEntity
  8
0
100
AcDbLine
 10
115.5
 20
36.0
 30
0.0
 11
127.5
 21
36.0
 31
0.0
  0
LINE
  5
12C
100
AcDbEntity
  8
0
100
AcDbLine
 10
115.5
 20
48.0
 30
0.0
 11
127.5
 21
48.0
 31
0.0
  0
LINE
  5
12D
100
AcDbEntity
  8
0
100
AcDbLine
 10
64.5
 20
62.0
 30
0.0
 11
95.0
 21
62.0
 31
0.0
  0
LINE
  5
12E
100
AcDbEntity
  8
0
100
AcDbLine
 10
64.5
 20
58.0
 30
0.0
 11
95.0
 21
58.0
 31
0.0
  0
LINE
  5
12F
100
AcDbEntity
  8
0
100
AcDbLine
 10
52.5
 20
66.0
 30
0.0
 11
64.5
 21
62.0
 31
0.0
  0
LINE
  5
130
100
AcDbEntity
  8
0
100
AcDbLine
 10
52.5
 20
62.0
 30
0.0
 11
64.5
 21
58.0
 31
0.0
  0
LINE
  5
131
100
AcDbEntity
  8
0
100
AcDbLine
 10
90.0
 20
62.0
 30
0.0
 11
90.0
 21
58.0
 31
0.0
  0
ENDBLK
  5
133
100
AcDbEntity
  8
0
100
AcDbBlockEnd
  0
BLOCK
  5
198
100
AcDbEntity
  8
0
100
AcDbBlockBegin
  2
A$C3D4A0DE5
 70
     0
 10
0.0
 20
0.0
 30
0.0
  3
A$C3D4A0DE5
  1

  0
LINE
  5
17B
100
AcDbEntity
  8
0
  6
HIDDEN2
100
AcDbLine
 10
0.0
 20
66.0
 30
0.0
 11
52.5
 21
66.0
 31
0.0
  0
LINE
  5
17C
100
AcDbEntity
  8
0
  6
HIDDEN2
100
AcDbLine
 10
0.0
 20
62.0
 30
0.0
 11
52.5
 21
62.0
 31
0.0
  0
LINE
  5
17D
100
AcDbEntity
  8
0
  6
HIDDEN2
100
AcDbLine
 10
0.0
 20
66.0
 30
0.0
 11
0.0
 21
62.0
 31
0.0
  0
LINE
  5
17E
100
AcDbEntity
  8
0
  6
HIDDEN2
100
AcDbLine
 10
90.0
 20
48.0
 30
0.0
 11
90.0
 21
0.0
 31
0.0
  0
LINE
  5
17F
100
AcDbEntity
  8
0
  6
HIDDEN2
100
AcDbLine
 10
115.5
 20
48.0
 30
0.0
 11
115.5
 21
0.0
 31
0.0
  0
LINE
  5
180
100
AcDbEntity
  8
0
  6
HIDDEN2
100
AcDbLine
 10
64.5
 20
48.0
 30
0.0
 11
64.5
 21
0.0
 31
0.0
  0
LINE
  5
181
100
AcDbEntity
  8
0
  6
HIDDEN2
100
AcDbLine
 10
52.5
 20
48.0
 30
0.0
 11
52.5
 21
0.0
 31
0.0
  0
LINE
  5
182
100
AcDbEntity
  8
0
  6
HIDDEN2
100
AcDbLine
 10
127.5
 20
48.0
 30
0.0
 11
127.5
 21
0.0
 31
0.0
  0
LINE
  5
183
100
AcDbEntity
  8
0
  6
HIDDEN2
100
AcDbLine
 10
64.5
 20
2.0
 30
0.0
 11
90.0
 21
0.0
 31
0.0
  0
LINE
  5
184
100
AcDbEntity
  8
0
  6
HIDDEN2
100
AcDbLine
 10
52.5
 20
0.0
 30
0.0
 11
64.5
 21
0.0
 31
0.0
  0
LINE
  5
185
100
AcDbEntity
  8
0
  6
HIDDEN2
100
AcDbLine
 10
52.5
 20
12.0
 30
0.0
 11
64.5
 21
12.0
 31
0.0
  0
LINE
  5
186
100
AcDbEntity
  8
0
  6
HIDDEN2
100
AcDbLine
 10
85.0
 20
0.392157
 30
0.0
 11
85.0
 21
0.0
 31
0.0
  0
LINE
  5
187
100
AcDbEntity
  8
0
  6
HIDDEN2
100
AcDbLine
 10
90.0
 20
0.0
 30
0.0
 11
115.5
 21
2.0
 31
0.0
  0
LINE
  5
188
100
AcDbEntity
  8
0
  6
HIDDEN2
100
AcDbLine
 10
95.0
 20
0.392157
 30
0.0
 11
95.0
 21
0.0
 31
0.0
  0
LINE
  5
189
100
AcDbEntity
  8
0
  6
HIDDEN2
100
AcDbLine
 10
115.5
 20
0.0
 30
0.0
 11
127.5
 21
0.0
 31
0.0
  0
LINE
  5
18A
100
AcDbEntity
  8
0
  6
HIDDEN2
100
AcDbLine
 10
115.5
 20
12.0
 30
0.0
 11
127.5
 21
12.0
 31
0.0
  0
LINE
  5
18B
100
AcDbEntity
  8
0
  6
HIDDEN2
100
AcDbLine
 10
95.0
 20
62.0
 30
0.0
 11
95.0
 21
47.607843
 31
0.0
  0
LINE
  5
18C
100
AcDbEntity
  8
0
  6
HIDDEN2
100
AcDbLine
 10
85.0
 20
62.0
 30
0.0
 11
85.0
 21
47.607843
 31
0.0
  0
LINE
  5
18D
100
AcDbEntity
  8
0
  6
HIDDEN2
100
AcDbLine
 10
64.5
 20
46.0
 30
0.0
 11
90.0
 21
48.0
 31
0.0
  0
LINE
  5
18E
100
AcDbEntity
  8
0
  6
HIDDEN2
100
AcDbLine
 10
52.5
 20
36.0
 30
0.0
 11
64.5
 21
36.0
 31
0.0
  0
LINE
  5
18F
100
AcDbEntity
  8
0
  6
HIDDEN2
100
AcDbLine
 10
52.5
 20
48.0
 30
0.0
 11
64.5
 21
48.0
 31
0.0
  0
LINE
  5
190
100
AcDbEntity
  8
0
  6
HIDDEN2
100
AcDbLine
 10
90.0
 20
48.0
 30
0.0
 11
115.5
 21
46.0
 31
0.0
  0
LINE
  5
191
100
AcDbEntity
  8
0
  6
HIDDEN2
100
AcDbLine
 10
115.5
 20
36.0
 30
0.0
 11
127.5
 21
36.0
 31
0.0
  0
LINE
  5
192
100
AcDbEntity
  8
0
  6
HIDDEN2
100
AcDbLine
 10
115.5
 20
48.0
 30
0.0
 11
127.5
 21
48.0
 31
0.0
  0
LINE
  5
193
100
AcDbEntity
  8
0
  6
HIDDEN2
100
AcDbLine
 10
64.5
 20
62.0
 30
0.0
 11
95.0
 21
62.0
 31
0.0
  0
LINE
  5
194
100
AcDbEntity
  8
0
  6
HIDDEN2
100
AcDbLine
 10
64.5
 20
58.0
 30
0.0
 11
95.0
 21
58.0
 31
0.0
  0
LINE
  5
195
100
AcDbEntity
  8
0
  6
HIDDEN2
100
AcDbLine
 10
52.5
 20
66.0
 30
0.0
 11
64.5
 21
62.0
 31
0.0
  0
LINE
  5
196
100
AcDbEntity
  8
0
  6
HIDDEN2
100
AcDbLine
 10
52.5
 20
62.0
 30
0.0
 11
64.5
 21
58.0
 31
0.0
  0
LINE
  5
197
100
AcDbEntity
  8
0
  6
HIDDEN2
100
AcDbLine
 10
90.0
 20
62.0
 30
0.0
 11
90.0
 21
58.0
 31
0.0
  0
ENDBLK
  5
199
100
AcDbEntity
  8
0
100
AcDbBlockEnd
  0
BLOCK
  5
1B8
100
AcDbEntity
  8
0
100
AcDbBlockBegin
  2
A$C061D45EC
 70
     0
 10
0.0
 20
0.0
 30
0.0
  3
A$C061D45EC
  1

  0
LINE
  5
1AE
100
AcDbEntity
  8
0
100
AcDbLine
 10
0.0
 20
18.392157
 30
0.0
 11
52.5
 21
18.392157
 31
0.0
  0
LINE
  5
1AF
100
AcDbEntity
  8
0
100
AcDbLine
 10
0.0
 20
14.392157
 30
0.0
 11
52.5
 21
14.392157
 31
0.0
  0
LINE
  5
1B0
100
AcDbEntity
  8
0
100
AcDbLine
 10
0.0
 20
18.392157
 30
0.0
 11
0.0
 21
14.392157
 31
0.0
  0
LINE
  5
1B1
100
AcDbEntity
  8
0
100
AcDbLine
 10
64.5
 20
14.392157
 30
0.0
 11
95.0
 21
14.392157
 31
0.0
  0
LINE
  5
1B2
100
AcDbEntity
  8
0
100
AcDbLine
 10
64.5
 20
10.392157
 30
0.0
 11
95.0
 21
10.392157
 31
0.0
  0
LINE
  5
1B3
100
AcDbEntity
  8
0
100
AcDbLine
 10
52.5
 20
18.392157
 30
0.0
 11
64.5
 21
14.392157
 31
0.0
  0
LINE
  5
1B4
100
AcDbEntity
  8
0
100
AcDbLine
 10
52.5
 20
14.392157
 30
0.0
 11
64.5
 21
10.392157
 31
0.0
  0
LINE
  5
1B5
100
AcDbEntity
  8
0
100
AcDbLine
 10
90.0
 20
14.392157
 30
0.0
 11
90.0
 21
10.392157
 31
0.0
  0
LINE
  5
1B6
100
AcDbEntity
  8
0
100
AcDbLine
 10
85.0
 20
14.392157
 30
0.0
 11
85.0
 21
0.0
 31
0.0
  0
LINE
  5
1B7
100
AcDbEntity
  8
0
100
AcDbLine
 10
95.0
 20
14.392157
 30
0.0
 11
95.0
 21
0.0
 31
0.0
  0
ENDBLK
  5
1B9
100
AcDbEntity
  8
0
100
AcDbBlockEnd
  0
BLOCK
  5
C1E
100
AcDbEntity
  8
0
100
AcDbBlockBegin
  2
*D3
 70
     1
 10
0.0
 20
0.0
 30
0.0
  3
*D3
  1

  0
LINE
  5
C1F
100
AcDbEntity
  8
0
  6
BYBLOCK
 62
     0
100
AcDbLine
 10
704.256135
 20
942.87257
 30
0.0
 11
886.033754
 21
942.87257
 31
0.0
  0
LINE
  5
C20
100
AcDbEntity
  8
0
  6
BYBLOCK
 62
     0
100
AcDbLine
 10
805.860945
 20
42.87257
 30
0.0
 11
886.033754
 21
42.87257
 31
0.0
  0
LINE
  5
C21
100
AcDbEntity
  8
0
  6
BYBLOCK
 62
     0
100
AcDbLine
 10
881.824999
 20
934.455062
 30
0.0
 11
881.824999
 21
51.290079
 31
0.0
  0
SOLID
  5
C22
100
AcDbEntity
  8
0
  6
BYBLOCK
 62
     0
100
AcDbTrace
 10
880.422081
 20
934.455062
 30
0.0
 11
883.227918
 21
934.455062
 31
0.0
 12
881.824999
 22
942.87257
 32
0.0
 13
881.824999
 23
942.87257
 33
0.0
  0
SOLID
  5
C23
100
AcDbEntity
  8
0
  6
BYBLOCK
 62
     0
100
AcDbTrace
 10
880.422081
 20
51.290079
 30
0.0
 11
883.227918
 21
51.290079
 31
0.0
 12
881.824999
 22
42.87257
 32
0.0
 13
881.824999
 23
42.87257
 33
0.0
  0
MTEXT
  5
C24
100
AcDbEntity
  8
0
  6
BYBLOCK
 62
     0
100
AcDbMText
 10
869.720622
 20
492.87257
 30
0.0
 40
20.0
 41
0.0
 71
     5
 72
     1
  1
\A1;900
 11
0.0
 21
1.0
 31
0.0
  0
POINT
  5
C25
100
AcDbEntity
  8
DEFPOINTS
  6
BYBLOCK
 62
     0
100
AcDbPoint
 10
702.151758
 20
942.87257
 30
0.0
  0
POINT
  5
C26
100
AcDbEntity
  8
DEFPOINTS
  6
BYBLOCK
 62
     0
100
AcDbPoint
 10
803.756568
 20
42.87257
 30
0.0
  0
POINT
  5
C27
100
AcDbEntity
  8
DEFPOINTS
  6
BYBLOCK
 62
     0
100
AcDbPoint
 10
881.824999
 20
42.87257
 30
0.0
  0
ENDBLK
  5
C28
100
AcDbEntity
  8
0
100
AcDbBlockEnd
  0
BLOCK
  5
996
100
AcDbEntity
  8
0
100
AcDbBlockBegin
  2
*D4
 70
     1
 10
0.0
 20
0.0
 30
0.0
  3
*D4
  1

  0
LINE
  5
997
100
AcDbEntity
  8
0
  6
BYBLOCK
 62
     0
100
AcDbLine
 10
205.892646
 20
962.68015
 30
0.0
 11
205.892646
 21
1049.89023
 31
0.0
  0
LINE
  5
998
100
AcDbEntity
  8
0
  6
BYBLOCK
 62
     0
100
AcDbLine
 10
685.892646
 20
962.68015
 30
0.0
 11
685.892646
 21
1049.89023
 31
0.0
  0
LINE
  5
999
100
AcDbEntity
  8
0
  6
BYBLOCK
 62
     0
100
AcDbLine
 10
214.310154
 20
1045.681476
 30
0.0
 11
677.475137
 21
1045.681476
 31
0.0
  0
SOLID
  5
99A
100
AcDbEntity
  8
0
  6
BYBLOCK
 62
     0
100
AcDbTrace
 10
214.310154
 20
1047.084394
 30
0.0
 11
214.310154
 21
1044.278558
 31
0.0
 12
205.892646
 22
1045.681476
 32
0.0
 13
205.892646
 23
1045.681476
 33
0.0
  0
SOLID
  5
99B
100
AcDbEntity
  8
0
  6
BYBLOCK
 62
     0
100
AcDbTrace
 10
677.475137
 20
1047.084394
 30
0.0
 11
677.475137
 21
1044.278558
 31
0.0
 12
685.892646
 22
1045.681476
 32
0.0
 13
685.892646
 23
1045.681476
 33
0.0
  0
MTEXT
  5
99C
100
AcDbEntity
  8
0
  6
BYBLOCK
 62
     0
100
AcDbMText
 10
445.892646
 20
1057.785853
 30
0.0
 40
20.0
 41
0.0
 71
     5
 72
     1
  1
\A1;480
  0
POINT
  5
99D
100
AcDbEntity
  8
DEFPOINTS
  6
BYBLOCK
 62
     0
100
AcDbPoint
 10
205.892646
 20
960.575773
 30
0.0
  0
POINT
  5
99E
100
AcDbEntity
  8
DEFPOINTS
  6
BYBLOCK
 62
     0
100
AcDbPoint
 10
685.892646
 20
960.575773
 30
0.0
  0
POINT
  5
99F
100
AcDbEntity
  8
DEFPOINTS
  6
BYBLOCK
 62
     0
100
AcDbPoint
 10
685.892646
 20
1045.681476
 30
0.0
  0
ENDBLK
  5
9A0
100
AcDbEntity
  8
0
100
AcDbBlockEnd
  0
BLOCK
  5
92D
100
AcDbEntity
  8
0
100
AcDbBlockBegin
  2
*D5
 70
     1
 10
0.0
 20
0.0
 30
0.0
  3
*D5
  1

  0
LINE
  5
92E
100
AcDbEntity
  8
0
  6
BYBLOCK
 62
     0
100
AcDbLine
 10
205.892646
 20
1863.349112
 30
0.0
 11
205.892646
 21
1940.891181
 31
0.0
  0
LINE
  5
92F
100
AcDbEntity
  8
0
  6
BYBLOCK
 62
     0
100
AcDbLine
 10
685.892646
 20
1863.349112
 30
0.0
 11
685.892646
 21
1940.891181
 31
0.0
  0
LINE
  5
930
100
AcDbEntity
  8
0
  6
BYBLOCK
 62
     0
100
AcDbLine
 10
214.310154
 20
1936.682427
 30
0.0
 11
677.475137
 21
1936.682427
 31
0.0
  0
SOLID
  5
931
100
AcDbEntity
  8
0
  6
BYBLOCK
 62
     0
100
AcDbTrace
 10
214.310154
 20
1938.085345
 30
0.0
 11
214.310154
 21
1935.279509
 31
0.0
 12
205.892646
 22
1936.682427
 32
0.0
 13
205.892646
 23
1936.682427
 33
0.0
  0
SOLID
  5
932
100
AcDbEntity
  8
0
  6
BYBLOCK
 62
     0
100
AcDbTrace
 10
677.475137
 20
1938.085345
 30
0.0
 11
677.475137
 21
1935.279509
 31
0.0
 12
685.892646
 22
1936.682427
 32
0.0
 13
685.892646
 23
1936.682427
 33
0.0
  0
MTEXT
  5
933
100
AcDbEntity
  8
0
  6
BYBLOCK
 62
     0
100
AcDbMText
 10
445.892646
 20
1948.786804
 30
0.0
 40
20.0
 41
0.0
 71
     5
 72
     1
  1
\A1;480
  0
POINT
  5
934
100
AcDbEntity
  8
DEFPOINTS
  6
BYBLOCK
 62
     0
100
AcDbPoint
 10
205.892646
 20
1861.244735
 30
0.0
  0
POINT
  5
935
100
AcDbEntity
  8
DEFPOINTS
  6
BYBLOCK
 62
     0
100
AcDbPoint
 10
685.892646
 20
1861.244735
 30
0.0
  0
POINT
  5
936
100
AcDbEntity
  8
DEFPOINTS
  6
BYBLOCK
 62
     0
100
AcDbPoint
 10
685.892646
 20
1936.682427
 30
0.0
  0
ENDBLK
  5
937
100
AcDbEntity
  8
0
100
AcDbBlockEnd
  0
BLOCK
  5
CAD
100
AcDbEntity
  8
0
100
AcDbBlockBegin
  2
*D6
 70
     1
 10
0.0
 20
0.0
 30
0.0
  3
*D6
  1

  0
LINE
  5
CAE
100
AcDbEntity
  8
0
  6
BYBLOCK
 62
     0
100
AcDbLine
 10
700.543279
 20
1842.293319
 30
0.0
 11
818.34744
 21
1842.293319
 31
0.0
  0
LINE
  5
CAF
100
AcDbEntity
  8
0
  6
BYBLOCK
 62
     0
100
AcDbLine
 10
698.475673
 20
1252.293319
 30
0.0
 11
818.34744
 21
1252.293319
 31
0.0
  0
LINE
  5
CB0
100
AcDbEntity
  8
0
  6
BYBLOCK
 62
     0
100
AcDbLine
 10
814.138686
 20
1833.875811
 30
0.0
 11
814.138686
 21
1260.710827
 31
0.0
  0
SOLID
  5
CB1
100
AcDbEntity
  8
0
  6
BYBLOCK
 62
     0
100
AcDbTrace
 10
812.735768
 20
1833.875811
 30
0.0
 11
815.541604
 21
1833.875811
 31
0.0
 12
814.138686
 22
1842.293319
 32
0.0
 13
814.138686
 23
1842.293319
 33
0.0
  0
SOLID
  5
CB2
100
AcDbEntity
  8
0
  6
BYBLOCK
 62
     0
100
AcDbTrace
 10
812.735768
 20
1260.710827
 30
0.0
 11
815.541604
 21
1260.710827
 31
0.0
 12
814.138686
 22
1252.293319
 32
0.0
 13
814.138686
 23
1252.293319
 33
0.0
  0
MTEXT
  5
CB3
100
AcDbEntity
  8
0
  6
BYBLOCK
 62
     0
100
AcDbMText
 10
802.034309
 20
1630.961067
 30
0.0
 40
20.0
 41
0.0
 71
     5
 72
     1
  1
\A1;590
 11
0.0
 21
1.0
 31
0.0
  0
POINT
  5
CB4
100
AcDbEntity
  8
DEFPOINTS
  6
BYBLOCK
 62
     0
100
AcDbPoint
 10
698.438902
 20
1842.293319
 30
0.0
  0
POINT
  5
CB5
100
AcDbEntity
  8
DEFPOINTS
  6
BYBLOCK
 62
     0
100
AcDbPoint
 10
696.371296
 20
1252.293319
 30
0.0
  0
POINT
  5
CB6
100
AcDbEntity
  8
DEFPOINTS
  6
BYBLOCK
 62
     0
100
AcDbPoint
 10
814.138686
 20
1252.293319
 30
0.0
  0
ENDBLK
  5
CB7
100
AcDbEntity
  8
0
100
AcDbBlockEnd
  0
BLOCK
  5
986
100
AcDbEntity
  8
0
100
AcDbBlockBegin
  2
A$C4F2B35B1
 70
     0
 10
0.0
 20
0.0
 30
0.0
  3
A$C4F2B35B1
  1

  0
LWPOLYLINE
  5
985
100
AcDbEntity
  8
0
100
AcDbPolyline
 90
        4
 70
     1
 43
0.0
 10
0.0
 20
115.721462
 10
3.40623
 20
115.721462
 10
3.40623
 20
0.0
 10
0.0
 20
0.0
  0
ENDBLK
  5
987
100
AcDbEntity
  8
0
100
AcDbBlockEnd
  0
BLOCK
  5
9D2
100
AcDbEntity
  8
0
100
AcDbBlockBegin
  2
A$C560405F2
 70
     0
 10
0.0
 20
0.0
 30
0.0
  3
A$C560405F2
  1

  0
INSERT
  5
9CF
100
AcDbEntity
  8
0
100
AcDbBlockReference
  2
A$C061D45EC
 10
0.000005
 20
49.747753
 30
0.0
  0
CIRCLE
  5
9D0
100
AcDbEntity
  8
0
100
AcDbCircle
 10
89.810756
 20
24.999998
 30
0.0
 40
25.0
  0
CIRCLE
  5
9D1
100
AcDbEntity
  8
0
100
AcDbCircle
 10
89.810756
 20
24.999998
 30
0.0
 40
21.0
  0
ENDBLK
  5
9D3
100
AcDbEntity
  8
0
100
AcDbBlockEnd
  0
BLOCK
  5
E09
100
AcDbEntity
  8
0
100
AcDbBlockBegin
  2
*D9
 70
     1
 10
0.0
 20
0.0
 30
0.0
  3
*D9
  1

  0
LINE
  5
E0A
100
AcDbEntity
  8
0
  6
BYBLOCK
 62
     0
100
AcDbLine
 10
705.242356
 20
842.87257
 30
0.0
 11
805.603634
 21
842.87257
 31
0.0
  0
LINE
  5
E0B
100
AcDbEntity
  8
0
  6
BYBLOCK
 62
     0
100
AcDbLine
 10
702.784666
 20
42.87257
 30
0.0
 11
805.603634
 21
42.87257
 31
0.0
  0
LINE
  5
E0C
100
AcDbEntity
  8
0
  6
BYBLOCK
 62
     0
100
AcDbLine
 10
801.39488
 20
834.455062
 30
0.0
 11
801.39488
 21
51.290079
 31
0.0
  0
SOLID
  5
E0D
100
AcDbEntity
  8
0
  6
BYBLOCK
 62
     0
100
AcDbTrace
 10
799.991962
 20
834.455062
 30
0.0
 11
802.797798
 21
834.455062
 31
0.0
 12
801.39488
 22
842.87257
 32
0.0
 13
801.39488
 23
842.87257
 33
0.0
  0
SOLID
  5
E0E
100
AcDbEntity
  8
0
  6
BYBLOCK
 62
     0
100
AcDbTrace
 10
799.991962
 20
51.290079
 30
0.0
 11
802.797798
 21
51.290079
 31
0.0
 12
801.39488
 22
42.87257
 32
0.0
 13
801.39488
 23
42.87257
 33
0.0
  0
MTEXT
  5
E0F
100
AcDbEntity
  8
0
  6
BYBLOCK
 62
     0
100
AcDbMText
 10
789.290503
 20
590.285126
 30
0.0
 40
20.0
 41
0.0
 71
     5
 72
     1
  1
\A1;800
 11
0.0
 21
1.0
 31
0.0
  0
POINT
  5
E10
100
AcDbEntity
  8
DEFPOINTS
  6
BYBLOCK
 62
     0
100
AcDbPoint
 10
703.137979
 20
842.87257
 30
0.0
  0
POINT
  5
E11
100
AcDbEntity
  8
DEFPOINTS
  6
BYBLOCK
 62
     0
100
AcDbPoint
 10
700.680289
 20
42.87257
 30
0.0
  0
POINT
  5
E12
100
AcDbEntity
  8
DEFPOINTS
  6
BYBLOCK
 62
     0
100
AcDbPoint
 10
801.39488
 20
42.87257
 30
0.0
  0
ENDBLK
  5
E13
100
AcDbEntity
  8
0
100
AcDbBlockEnd
  0
BLOCK
  5
BFD
100
AcDbEntity
  8
0
100
AcDbBlockBegin
  2
*D10
 70
     1
 10
0.0
 20
0.0
 30
0.0
  3
*D10
  1

  0
LINE
  5
BFE
100
AcDbEntity
  8
0
  6
BYBLOCK
 62
     0
100
AcDbLine
 10
705.242356
 20
842.87257
 30
0.0
 11
805.001705
 21
842.87257
 31
0.0
  0
LINE
  5
BFF
100
AcDbEntity
  8
0
  6
BYBLOCK
 62
     0
100
AcDbLine
 10
707.653351
 20
942.87257
 30
0.0
 11
805.001705
 21
942.87257
 31
0.0
  0
LINE
  5
C00
100
AcDbEntity
  8
0
  6
BYBLOCK
 62
     0
100
AcDbLine
 10
800.792951
 20
851.290079
 30
0.0
 11
800.792951
 21
934.455062
 31
0.0
  0
SOLID
  5
C01
100
AcDbEntity
  8
0
  6
BYBLOCK
 62
     0
100
AcDbTrace
 10
799.390032
 20
851.290079
 30
0.0
 11
802.195869
 21
851.290079
 31
0.0
 12
800.792951
 22
842.87257
 32
0.0
 13
800.792951
 23
842.87257
 33
0.0
  0
SOLID
  5
C02
100
AcDbEntity
  8
0
  6
BYBLOCK
 62
     0
100
AcDbTrace
 10
799.390032
 20
934.455062
 30
0.0
 11
802.195869
 21
934.455062
 31
0.0
 12
800.792951
 22
942.87257
 32
0.0
 13
800.792951
 23
942.87257
 33
0.0
  0
MTEXT
  5
C03
100
AcDbEntity
  8
0
  6
BYBLOCK
 62
     0
100
AcDbMText
 10
788.688573
 20
892.87257
 30
0.0
 40
20.0
 41
0.0
 71
     5
 72
     1
  1
\A1;100
 11
0.0
 21
1.0
 31
0.0
  0
POINT
  5
C04
100
AcDbEntity
  8
DEFPOINTS
  6
BYBLOCK
 62
     0
100
AcDbPoint
 10
703.137979
 20
842.87257
 30
0.0
  0
POINT
  5
C05
100
AcDbEntity
  8
DEFPOINTS
  6
BYBLOCK
 62
     0
100
AcDbPoint
 10
705.548974
 20
942.87257
 30
0.0
  0
POINT
  5
C06
100
AcDbEntity
  8
DEFPOINTS
  6
BYBLOCK
 62
     0
100
AcDbPoint
 10
800.792951
 20
942.87257
 30
0.0
  0
ENDBLK
  5
C07
100
AcDbEntity
  8
0
100
AcDbBlockEnd
  0
BLOCK
  5
B79
100
AcDbEntity
  8
0
100
AcDbBlockBegin
  2
*D11
 70
     1
 10
0.0
 20
0.0
 30
0.0
  3
*D11
  1

  0
LINE
  5
B7A
100
AcDbEntity
  8
0
  6
BYBLOCK
 62
     0
100
AcDbLine
 10
700.543279
 20
1842.293319
 30
0.0
 11
764.662582
 21
1842.293319
 31
0.0
  0
LINE
  5
B7B
100
AcDbEntity
  8
0
  6
BYBLOCK
 62
     0
100
AcDbLine
 10
697.996874
 20
1752.293319
 30
0.0
 11
764.662582
 21
1752.293319
 31
0.0
  0
LINE
  5
B7C
100
AcDbEntity
  8
0
  6
BYBLOCK
 62
     0
100
AcDbLine
 10
760.453828
 20
1833.875811
 30
0.0
 11
760.453828
 21
1760.710827
 31
0.0
  0
SOLID
  5
B7D
100
AcDbEntity
  8
0
  6
BYBLOCK
 62
     0
100
AcDbTrace
 10
759.05091
 20
1833.875811
 30
0.0
 11
761.856746
 21
1833.875811
 31
0.0
 12
760.453828
 22
1842.293319
 32
0.0
 13
760.453828
 23
1842.293319
 33
0.0
  0
SOLID
  5
B7E
100
AcDbEntity
  8
0
  6
BYBLOCK
 62
     0
100
AcDbTrace
 10
759.05091
 20
1760.710827
 30
0.0
 11
761.856746
 21
1760.710827
 31
0.0
 12
760.453828
 22
1752.293319
 32
0.0
 13
760.453828
 23
1752.293319
 33
0.0
  0
MTEXT
  5
B7F
100
AcDbEntity
  8
0
  6
BYBLOCK
 62
     0
100
AcDbMText
 10
748.349451
 20
1797.293319
 30
0.0
 40
20.0
 41
0.0
 71
     5
 72
     1
  1
\A1;90
 11
0.0
 21
1.0
 31
0.0
  0
POINT
  5
B80
100
AcDbEntity
  8
DEFPOINTS
  6
BYBLOCK
 62
     0
100
AcDbPoint
 10
698.438902
 20
1842.293319
 30
0.0
  0
POINT
  5
B81
100
AcDbEntity
  8
DEFPOINTS
  6
BYBLOCK
 62
     0
100
AcDbPoint
 10
695.892497
 20
1752.293319
 30
0.0
  0
POINT
  5
B82
100
AcDbEntity
  8
DEFPOINTS
  6
BYBLOCK
 62
     0
100
AcDbPoint
 10
760.453828
 20
1752.293319
 30
0.0
  0
ENDBLK
  5
B83
100
AcDbEntity
  8
0
100
AcDbBlockEnd
  0
BLOCK
  5
CC3
100
AcDbEntity
  8
0
100
AcDbBlockBegin
  2
*D12
 70
     1
 10
0.0
 20
0.0
 30
0.0
  3
*D12
  1

  0
LINE
  5
CC4
100
AcDbEntity
  8
0
  6
BYBLOCK
 62
     0
100
AcDbLine
 10
697.996874
 20
1752.293319
 30
0.0
 11
763.441909
 21
1752.293319
 31
0.0
  0
LINE
  5
CC5
100
AcDbEntity
  8
0
  6
BYBLOCK
 62
     0
100
AcDbLine
 10
698.475673
 20
1252.293319
 30
0.0
 11
763.441909
 21
1252.293319
 31
0.0
  0
LINE
  5
CC6
100
AcDbEntity
  8
0
  6
BYBLOCK
 62
     0
100
AcDbLine
 10
759.233155
 20
1743.875811
 30
0.0
 11
759.233155
 21
1260.710827
 31
0.0
  0
SOLID
  5
CC7
100
AcDbEntity
  8
0
  6
BYBLOCK
 62
     0
100
AcDbTrace
 10
757.830237
 20
1743.875811
 30
0.0
 11
760.636073
 21
1743.875811
 31
0.0
 12
759.233155
 22
1752.293319
 32
0.0
 13
759.233155
 23
1752.293319
 33
0.0
  0
SOLID
  5
CC8
100
AcDbEntity
  8
0
  6
BYBLOCK
 62
     0
100
AcDbTrace
 10
757.830237
 20
1260.710827
 30
0.0
 11
760.636073
 21
1260.710827
 31
0.0
 12
759.233155
 22
1252.293319
 32
0.0
 13
759.233155
 23
1252.293319
 33
0.0
  0
MTEXT
  5
CC9
100
AcDbEntity
  8
0
  6
BYBLOCK
 62
     0
100
AcDbMText
 10
747.128778
 20
1581.773796
 30
0.0
 40
20.0
 41
0.0
 71
     5
 72
     1
  1
\A1;500
 11
0.0
 21
1.0
 31
0.0
  0
POINT
  5
CCA
100
AcDbEntity
  8
DEFPOINTS
  6
BYBLOCK
 62
     0
100
AcDbPoint
 10
695.892497
 20
1752.293319
 30
0.0
  0
POINT
  5
CCB
100
AcDbEntity
  8
DEFPOINTS
  6
BYBLOCK
 62
     0
100
AcDbPoint
 10
696.371296
 20
1252.293319
 30
0.0
  0
POINT
  5
CCC
100
AcDbEntity
  8
DEFPOINTS
  6
BYBLOCK
 62
     0
100
AcDbPoint
 10
759.233155
 20
1252.293319
 30
0.0
  0
ENDBLK
  5
CCD
100
AcDbEntity
  8
0
100
AcDbBlockEnd
  0
BLOCK
  5
B4F
100
AcDbEntity
  8
0
100
AcDbBlockBegin
  2
*D13
 70
     1
 10
0.0
 20
0.0
 30
0.0
  3
*D13
  1

  0
LINE
  5
B50
100
AcDbEntity
  8
0
  6
BYBLOCK
 62
     0
100
AcDbLine
 10
205.892646
 20
1857.229863
 30
0.0
 11
205.892646
 21
1881.865876
 31
0.0
  0
LINE
  5
B51
100
AcDbEntity
  8
0
  6
BYBLOCK
 62
     0
100
AcDbLine
 10
340.892646
 20
1836.874541
 30
0.0
 11
340.892646
 21
1881.865876
 31
0.0
  0
LINE
  5
B52
100
AcDbEntity
  8
0
  6
BYBLOCK
 62
     0
100
AcDbLine
 10
214.310154
 20
1877.657122
 30
0.0
 11
332.475137
 21
1877.657122
 31
0.0
  0
SOLID
  5
B53
100
AcDbEntity
  8
0
  6
BYBLOCK
 62
     0
100
AcDbTrace
 10
214.310154
 20
1879.06004
 30
0.0
 11
214.310154
 21
1876.254204
 31
0.0
 12
205.892646
 22
1877.657122
 32
0.0
 13
205.892646
 23
1877.657122
 33
0.0
  0
SOLID
  5
B54
100
AcDbEntity
  8
0
  6
BYBLOCK
 62
     0
100
AcDbTrace
 10
332.475137
 20
1879.06004
 30
0.0
 11
332.475137
 21
1876.254204
 31
0.0
 12
340.892646
 22
1877.657122
 32
0.0
 13
340.892646
 23
1877.657122
 33
0.0
  0
MTEXT
  5
B55
100
AcDbEntity
  8
0
  6
BYBLOCK
 62
     0
100
AcDbMText
 10
273.392646
 20
1889.761499
 30
0.0
 40
20.0
 41
0.0
 71
     5
 72
     1
  1
\A1;135
  0
POINT
  5
B56
100
AcDbEntity
  8
DEFPOINTS
  6
BYBLOCK
 62
     0
100
AcDbPoint
 10
205.892646
 20
1855.125486
 30
0.0
  0
POINT
  5
B57
100
AcDbEntity
  8
DEFPOINTS
  6
BYBLOCK
 62
     0
100
AcDbPoint
 10
340.892646
 20
1834.770164
 30
0.0
  0
POINT
  5
B58
100
AcDbEntity
  8
DEFPOINTS
  6
BYBLOCK
 62
     0
100
AcDbPoint
 10
340.892646
 20
1877.657122
 30
0.0
  0
ENDBLK
  5
B59
100
AcDbEntity
  8
0
100
AcDbBlockEnd
  0
BLOCK
  5
B5A
100
AcDbEntity
  8
0
100
AcDbBlockBegin
  2
*D14
 70
     1
 10
0.0
 20
0.0
 30
0.0
  3
*D14
  1

  0
LINE
  5
B5B
100
AcDbEntity
  8
0
  6
BYBLOCK
 62
     0
100
AcDbLine
 10
550.892646
 20
1836.874541
 30
0.0
 11
550.892646
 21
1881.865876
 31
0.0
  0
LINE
  5
B5C
100
AcDbEntity
  8
0
  6
BYBLOCK
 62
     0
100
AcDbLine
 10
349.310154
 20
1877.657122
 30
0.0
 11
542.475137
 21
1877.657122
 31
0.0
  0
SOLID
  5
B5D
100
AcDbEntity
  8
0
  6
BYBLOCK
 62
     0
100
AcDbTrace
 10
349.310154
 20
1879.06004
 30
0.0
 11
349.310154
 21
1876.254204
 31
0.0
 12
340.892646
 22
1877.657122
 32
0.0
 13
340.892646
 23
1877.657122
 33
0.0
  0
SOLID
  5
B5E
100
AcDbEntity
  8
0
  6
BYBLOCK
 62
     0
100
AcDbTrace
 10
542.475137
 20
1879.06004
 30
0.0
 11
542.475137
 21
1876.254204
 31
0.0
 12
550.892646
 22
1877.657122
 32
0.0
 13
550.892646
 23
1877.657122
 33
0.0
  0
MTEXT
  5
B5F
100
AcDbEntity
  8
0
  6
BYBLOCK
 62
     0
100
AcDbMText
 10
445.892646
 20
1889.761499
 30
0.0
 40
20.0
 41
0.0
 71
     5
 72
     1
  1
\A1;210
  0
POINT
  5
B60
100
AcDbEntity
  8
DEFPOINTS
  6
BYBLOCK
 62
     0
100
AcDbPoint
 10
340.892646
 20
1834.770164
 30
0.0
  0
POINT
  5
B61
100
AcDbEntity
  8
DEFPOINTS
  6
BYBLOCK
 62
     0
100
AcDbPoint
 10
550.892646
 20
1834.770164
 30
0.0
  0
POINT
  5
B62
100
AcDbEntity
  8
DEFPOINTS
  6
BYBLOCK
 62
     0
100
AcDbPoint
 10
550.892646
 20
1877.657122
 30
0.0
  0
ENDBLK
  5
B63
100
AcDbEntity
  8
0
100
AcDbBlockEnd
  0
BLOCK
  5
B64
100
AcDbEntity
  8
0
100
AcDbBlockBegin
  2
*D15
 70
     1
 10
0.0
 20
0.0
 30
0.0
  3
*D15
  1

  0
LINE
  5
B65
100
AcDbEntity
  8
0
  6
BYBLOCK
 62
     0
100
AcDbLine
 10
685.892646
 20
1854.685448
 30
0.0
 11
685.892646
 21
1881.865876
 31
0.0
  0
LINE
  5
B66
100
AcDbEntity
  8
0
  6
BYBLOCK
 62
     0
100
AcDbLine
 10
559.310154
 20
1877.657122
 30
0.0
 11
677.475137
 21
1877.657122
 31
0.0
  0
SOLID
  5
B67
100
AcDbEntity
  8
0
  6
BYBLOCK
 62
     0
100
AcDbTrace
 10
559.310154
 20
1879.06004
 30
0.0
 11
559.310154
 21
1876.254204
 31
0.0
 12
550.892646
 22
1877.657122
 32
0.0
 13
550.892646
 23
1877.657122
 33
0.0
  0
SOLID
  5
B68
100
AcDbEntity
  8
0
  6
BYBLOCK
 62
     0
100
AcDbTrace
 10
677.475137
 20
1879.06004
 30
0.0
 11
677.475137
 21
1876.254204
 31
0.0
 12
685.892646
 22
1877.657122
 32
0.0
 13
685.892646
 23
1877.657122
 33
0.0
  0
MTEXT
  5
B69
100
AcDbEntity
  8
0
  6
BYBLOCK
 62
     0
100
AcDbMText
 10
618.392646
 20
1889.761499
 30
0.0
 40
20.0
 41
0.0
 71
     5
 72
     1
  1
\A1;135
  0
POINT
  5
B6A
100
AcDbEntity
  8
DEFPOINTS
  6
BYBLOCK
 62
     0
100
AcDbPoint
 10
550.892646
 20
1834.770164
 30
0.0
  0
POINT
  5
B6B
100
AcDbEntity
  8
DEFPOINTS
  6
BYBLOCK
 62
     0
100
AcDbPoint
 10
685.892646
 20
1852.581071
 30
0.0
  0
POINT
  5
B6C
100
AcDbEntity
  8
DEFPOINTS
  6
BYBLOCK
 62
     0
100
AcDbPoint
 10
685.892646
 20
1877.657122
 30
0.0
  0
ENDBLK
  5
B6D
100
AcDbEntity
  8
0
100
AcDbBlockEnd
  0
BLOCK
  5
B6E
100
AcDbEntity
  8
0
100
AcDbBlockBegin
  2
*D16
 70
     1
 10
0.0
 20
0.0
 30
0.0
  3
*D16
  1

  0
LINE
  5
B6F
100
AcDbEntity
  8
0
  6
BYBLOCK
 62
     0
100
AcDbLine
 10
563.037643
 20
1825.293319
 30
0.0
 11
602.011622
 21
1825.293319
 31
0.0
  0
LINE
  5
B70
100
AcDbEntity
  8
0
  6
BYBLOCK
 62
     0
100
AcDbLine
 10
565.584048
 20
1768.293319
 30
0.0
 11
602.011622
 21
1768.293319
 31
0.0
  0
LINE
  5
B71
100
AcDbEntity
  8
0
  6
BYBLOCK
 62
     0
100
AcDbLine
 10
597.802868
 20
1816.875811
 30
0.0
 11
597.802868
 21
1776.710827
 31
0.0
  0
SOLID
  5
B72
100
AcDbEntity
  8
0
  6
BYBLOCK
 62
     0
100
AcDbTrace
 10
596.39995
 20
1816.875811
 30
0.0
 11
599.205786
 21
1816.875811
 31
0.0
 12
597.802868
 22
1825.293319
 32
0.0
 13
597.802868
 23
1825.293319
 33
0.0
  0
SOLID
  5
B73
100
AcDbEntity
  8
0
  6
BYBLOCK
 62
     0
100
AcDbTrace
 10
596.39995
 20
1776.710827
 30
0.0
 11
599.205786
 21
1776.710827
 31
0.0
 12
597.802868
 22
1768.293319
 32
0.0
 13
597.802868
 23
1768.293319
 33
0.0
  0
MTEXT
  5
B74
100
AcDbEntity
  8
0
  6
BYBLOCK
 62
     0
100
AcDbMText
 10
585.698491
 20
1796.793319
 30
0.0
 40
20.0
 41
0.0
 71
     5
 72
     1
  1
\A1;57
 11
0.0
 21
1.0
 31
0.0
  0
POINT
  5
B75
100
AcDbEntity
  8
DEFPOINTS
  6
BYBLOCK
 62
     0
100
AcDbPoint
 10
560.933266
 20
1825.293319
 30
0.0
  0
POINT
  5
B76
100
AcDbEntity
  8
DEFPOINTS
  6
BYBLOCK
 62
     0
100
AcDbPoint
 10
563.479671
 20
1768.293319
 30
0.0
  0
POINT
  5
B77
100
AcDbEntity
  8
DEFPOINTS
  6
BYBLOCK
 62
     0
100
AcDbPoint
 10
597.802868
 20
1768.293319
 30
0.0
  0
ENDBLK
  5
B78
100
AcDbEntity
  8
0
100
AcDbBlockEnd
  0
BLOCK
  5
BF2
100
AcDbEntity
  8
0
100
AcDbBlockBegin
  2
*D17
 70
     1
 10
0.0
 20
0.0
 30
0.0
  3
*D17
  1

  0
LINE
  5
BF3
100
AcDbEntity
  8
0
  6
BYBLOCK
 62
     0
100
AcDbLine
 10
564.446653
 20
1002.87257
 30
0.0
 11
600.327503
 21
1002.87257
 31
0.0
  0
LINE
  5
BF4
100
AcDbEntity
  8
0
  6
BYBLOCK
 62
     0
100
AcDbLine
 10
552.997023
 20
942.87257
 30
0.0
 11
600.327503
 21
942.87257
 31
0.0
  0
LINE
  5
BF5
100
AcDbEntity
  8
0
  6
BYBLOCK
 62
     0
100
AcDbLine
 10
596.118748
 20
994.455062
 30
0.0
 11
596.118748
 21
951.290079
 31
0.0
  0
SOLID
  5
BF6
100
AcDbEntity
  8
0
  6
BYBLOCK
 62
     0
100
AcDbTrace
 10
594.71583
 20
994.455062
 30
0.0
 11
597.521666
 21
994.455062
 31
0.0
 12
596.118748
 22
1002.87257
 32
0.0
 13
596.118748
 23
1002.87257
 33
0.0
  0
SOLID
  5
BF7
100
AcDbEntity
  8
0
  6
BYBLOCK
 62
     0
100
AcDbTrace
 10
594.71583
 20
951.290079
 30
0.0
 11
597.521666
 21
951.290079
 31
0.0
 12
596.118748
 22
942.87257
 32
0.0
 13
596.118748
 23
942.87257
 33
0.0
  0
MTEXT
  5
BF8
100
AcDbEntity
  8
0
  6
BYBLOCK
 62
     0
100
AcDbMText
 10
584.014371
 20
972.87257
 30
0.0
 40
20.0
 41
0.0
 71
     5
 72
     1
  1
\A1;60
 11
0.0
 21
1.0
 31
0.0
  0
POINT
  5
BF9
100
AcDbEntity
  8
DEFPOINTS
  6
BYBLOCK
 62
     0
100
AcDbPoint
 10
562.342276
 20
1002.87257
 30
0.0
  0
POINT
  5
BFA
100
AcDbEntity
  8
DEFPOINTS
  6
BYBLOCK
 62
     0
100
AcDbPoint
 10
550.892646
 20
942.87257
 30
0.0
  0
POINT
  5
BFB
100
AcDbEntity
  8
DEFPOINTS
  6
BYBLOCK
 62
     0
100
AcDbPoint
 10
596.118748
 20
942.87257
 30
0.0
  0
ENDBLK
  5
BFC
100
AcDbEntity
  8
0
100
AcDbBlockEnd
  0
BLOCK
  5
DDE
100
AcDbEntity
  8
0
100
AcDbBlockBegin
  2
*D18
 70
     1
 10
0.0
 20
0.0
 30
0.0
  3
*D18
  1

  0
LINE
  5
DDF
100
AcDbEntity
  8
0
  6
BYBLOCK
 62
     0
100
AcDbLine
 10
1531.389366
 20
859.993351
 30
0.0
 11
1531.389366
 21
1064.034225
 31
0.0
  0
LINE
  5
DE0
100
AcDbEntity
  8
0
  6
BYBLOCK
 62
     0
100
AcDbLine
 10
2121.389366
 20
961.342865
 30
0.0
 11
2121.389366
 21
1064.034225
 31
0.0
  0
LINE
  5
DE1
100
AcDbEntity
  8
0
  6
BYBLOCK
 62
     0
100
AcDbLine
 10
1539.806875
 20
1059.825471
 30
0.0
 11
2112.971858
 21
1059.825471
 31
0.0
  0
SOLID
  5
DE2
100
AcDbEntity
  8
0
  6
BYBLOCK
 62
     0
100
AcDbTrace
 10
1539.806875
 20
1061.228389
 30
0.0
 11
1539.806875
 21
1058.422553
 31
0.0
 12
1531.389366
 22
1059.825471
 32
0.0
 13
1531.389366
 23
1059.825471
 33
0.0
  0
SOLID
  5
DE3
100
AcDbEntity
  8
0
  6
BYBLOCK
 62
     0
100
AcDbTrace
 10
2112.971858
 20
1061.228389
 30
0.0
 11
2112.971858
 21
1058.422553
 31
0.0
 12
2121.389366
 22
1059.825471
 32
0.0
 13
2121.389366
 23
1059.825471
 33
0.0
  0
MTEXT
  5
DE4
100
AcDbEntity
  8
0
  6
BYBLOCK
 62
     0
100
AcDbMText
 10
1826.389366
 20
1071.929848
 30
0.0
 40
20.0
 41
0.0
 71
     5
 72
     1
  1
\A1;590
  0
POINT
  5
DE5
100
AcDbEntity
  8
DEFPOINTS
  6
BYBLOCK
 62
     0
100
AcDbPoint
 10
1531.389366
 20
857.888974
 30
0.0
  0
POINT
  5
DE6
100
AcDbEntity
  8
DEFPOINTS
  6
BYBLOCK
 62
     0
100
AcDbPoint
 10
2121.389366
 20
959.238487
 30
0.0
  0
POINT
  5
DE7
100
AcDbEntity
  8
DEFPOINTS
  6
BYBLOCK
 62
     0
100
AcDbPoint
 10
2121.389366
 20
1059.825471
 30
0.0
  0
ENDBLK
  5
DE8
100
AcDbEntity
  8
0
100
AcDbBlockEnd
  0
BLOCK
  5
D38
100
AcDbEntity
  8
0
100
AcDbBlockBegin
  2
*D19
 70
     1
 10
0.0
 20
0.0
 30
0.0
  3
*D19
  1

  0
LINE
  5
D39
100
AcDbEntity
  8
0
  6
BYBLOCK
 62
     0
100
AcDbLine
 10
1866.784989
 20
722.87257
 30
0.0
 11
1863.513122
 21
722.87257
 31
0.0
  0
LINE
  5
D3A
100
AcDbEntity
  8
0
  6
BYBLOCK
 62
     0
100
AcDbLine
 10
1866.784989
 20
842.87257
 30
0.0
 11
1863.513122
 21
842.87257
 31
0.0
  0
LINE
  5
D3B
100
AcDbEntity
  8
0
  6
BYBLOCK
 62
     0
100
AcDbLine
 10
1867.721877
 20
731.290079
 30
0.0
 11
1867.721877
 21
834.455062
 31
0.0
  0
SOLID
  5
D3C
100
AcDbEntity
  8
0
  6
BYBLOCK
 62
     0
100
AcDbTrace
 10
1866.318959
 20
731.290079
 30
0.0
 11
1869.124795
 21
731.290079
 31
0.0
 12
1867.721877
 22
722.87257
 32
0.0
 13
1867.721877
 23
722.87257
 33
0.0
  0
SOLID
  5
D3D
100
AcDbEntity
  8
0
  6
BYBLOCK
 62
     0
100
AcDbTrace
 10
1866.318959
 20
834.455062
 30
0.0
 11
1869.124795
 21
834.455062
 31
0.0
 12
1867.721877
 22
842.87257
 32
0.0
 13
1867.721877
 23
842.87257
 33
0.0
  0
MTEXT
  5
D3E
100
AcDbEntity
  8
0
  6
BYBLOCK
 62
     0
100
AcDbMText
 10
1855.6175
 20
782.87257
 30
0.0
 40
20.0
 41
0.0
 71
     5
 72
     1
  1
\A1;120
 11
0.0
 21
1.0
 31
0.0
  0
POINT
  5
D3F
100
AcDbEntity
  8
DEFPOINTS
  6
BYBLOCK
 62
     0
100
AcDbPoint
 10
1868.889366
 20
722.87257
 30
0.0
  0
POINT
  5
D40
100
AcDbEntity
  8
DEFPOINTS
  6
BYBLOCK
 62
     0
100
AcDbPoint
 10
1868.889366
 20
842.87257
 30
0.0
  0
POINT
  5
D41
100
AcDbEntity
  8
DEFPOINTS
  6
BYBLOCK
 62
     0
100
AcDbPoint
 10
1867.721877
 20
842.87257
 30
0.0
  0
ENDBLK
  5
D42
100
AcDbEntity
  8
0
100
AcDbBlockEnd
  0
BLOCK
  5
DE9
100
AcDbEntity
  8
0
100
AcDbBlockBegin
  2
*D20
 70
     1
 10
0.0
 20
0.0
 30
0.0
  3
*D20
  1

  0
LINE
  5
DEA
100
AcDbEntity
  8
0
  6
BYBLOCK
 62
     0
100
AcDbLine
 10
2121.389366
 20
961.342865
 30
0.0
 11
2121.389366
 21
1029.272568
 31
0.0
  0
LINE
  5
DEB
100
AcDbEntity
  8
0
  6
BYBLOCK
 62
     0
100
AcDbLine
 10
2031.389366
 20
964.807356
 30
0.0
 11
2031.389366
 21
1029.272568
 31
0.0
  0
LINE
  5
DEC
100
AcDbEntity
  8
0
  6
BYBLOCK
 62
     0
100
AcDbLine
 10
2112.971858
 20
1025.063814
 30
0.0
 11
2039.806875
 21
1025.063814
 31
0.0
  0
SOLID
  5
DED
100
AcDbEntity
  8
0
  6
BYBLOCK
 62
     0
100
AcDbTrace
 10
2112.971858
 20
1026.466732
 30
0.0
 11
2112.971858
 21
1023.660896
 31
0.0
 12
2121.389366
 22
1025.063814
 32
0.0
 13
2121.389366
 23
1025.063814
 33
0.0
  0
SOLID
  5
DEE
100
AcDbEntity
  8
0
  6
BYBLOCK
 62
     0
100
AcDbTrace
 10
2039.806875
 20
1026.466732
 30
0.0
 11
2039.806875
 21
1023.660896
 31
0.0
 12
2031.389366
 22
1025.063814
 32
0.0
 13
2031.389366
 23
1025.063814
 33
0.0
  0
MTEXT
  5
DEF
100
AcDbEntity
  8
0
  6
BYBLOCK
 62
     0
100
AcDbMText
 10
2076.389366
 20
1037.168191
 30
0.0
 40
20.0
 41
0.0
 71
     5
 72
     1
  1
\A1;90
  0
POINT
  5
DF0
100
AcDbEntity
  8
DEFPOINTS
  6
BYBLOCK
 62
     0
100
AcDbPoint
 10
2121.389366
 20
959.238487
 30
0.0
  0
POINT
  5
DF1
100
AcDbEntity
  8
DEFPOINTS
  6
BYBLOCK
 62
     0
100
AcDbPoint
 10
2031.389366
 20
962.702979
 30
0.0
  0
POINT
  5
DF2
100
AcDbEntity
  8
DEFPOINTS
  6
BYBLOCK
 62
     0
100
AcDbPoint
 10
2031.389366
 20
1025.063814
 30
0.0
  0
ENDBLK
  5
DF3
100
AcDbEntity
  8
0
100
AcDbBlockEnd
  0
BLOCK
  5
E43
100
AcDbEntity
  8
0
100
AcDbBlockBegin
  2
*D21
 70
     1
 10
0.0
 20
0.0
 30
0.0
  3
*D21
  1

  0
LINE
  5
E44
100
AcDbEntity
  8
0
  6
BYBLOCK
 62
     0
100
AcDbLine
 10
238.392646
 20
1394.397696
 30
0.0
 11
238.392646
 21
1420.565518
 31
0.0
  0
LINE
  5
E45
100
AcDbEntity
  8
0
  6
BYBLOCK
 62
     0
100
AcDbLine
 10
653.392646
 20
1394.397696
 30
0.0
 11
653.392646
 21
1420.565518
 31
0.0
  0
LINE
  5
E46
100
AcDbEntity
  8
0
  6
BYBLOCK
 62
     0
100
AcDbLine
 10
246.810154
 20
1416.356764
 30
0.0
 11
644.975137
 21
1416.356764
 31
0.0
  0
SOLID
  5
E47
100
AcDbEntity
  8
0
  6
BYBLOCK
 62
     0
100
AcDbTrace
 10
246.810154
 20
1417.759682
 30
0.0
 11
246.810154
 21
1414.953846
 31
0.0
 12
238.392646
 22
1416.356764
 32
0.0
 13
238.392646
 23
1416.356764
 33
0.0
  0
SOLID
  5
E48
100
AcDbEntity
  8
0
  6
BYBLOCK
 62
     0
100
AcDbTrace
 10
644.975137
 20
1417.759682
 30
0.0
 11
644.975137
 21
1414.953846
 31
0.0
 12
653.392646
 22
1416.356764
 32
0.0
 13
653.392646
 23
1416.356764
 33
0.0
  0
MTEXT
  5
E49
100
AcDbEntity
  8
0
  6
BYBLOCK
 62
     0
100
AcDbMText
 10
445.892646
 20
1428.461141
 30
0.0
 40
20.0
 41
0.0
 71
     5
 72
     1
  1
\A1;415
  0
POINT
  5
E4A
100
AcDbEntity
  8
DEFPOINTS
  6
BYBLOCK
 62
     0
100
AcDbPoint
 10
238.392646
 20
1392.293319
 30
0.0
  0
POINT
  5
E4B
100
AcDbEntity
  8
DEFPOINTS
  6
BYBLOCK
 62
     0
100
AcDbPoint
 10
653.392646
 20
1392.293319
 30
0.0
  0
POINT
  5
E4C
100
AcDbEntity
  8
DEFPOINTS
  6
BYBLOCK
 62
     0
100
AcDbPoint
 10
653.392646
 20
1416.356764
 30
0.0
  0
ENDBLK
  5
E4D
100
AcDbEntity
  8
0
100
AcDbBlockEnd
  0
BLOCK
  5
EF0
100
AcDbEntity
  8
0
100
AcDbBlockBegin
  2
*D22
 70
     1
 10
0.0
 20
0.0
 30
0.0
  3
*D22
  1

  0
LINE
  5
EF1
100
AcDbEntity
  8
0
  6
BYBLOCK
 62
     0
100
AcDbLine
 10
1737.789002
 20
732.87257
 30
0.0
 11
1743.569964
 21
732.87257
 31
0.0
  0
LINE
  5
EF2
100
AcDbEntity
  8
0
  6
BYBLOCK
 62
     0
100
AcDbLine
 10
1738.493743
 20
817.87257
 30
0.0
 11
1743.569964
 21
817.87257
 31
0.0
  0
LINE
  5
EF3
100
AcDbEntity
  8
0
  6
BYBLOCK
 62
     0
100
AcDbLine
 10
1739.36121
 20
741.290079
 30
0.0
 11
1739.36121
 21
809.455062
 31
0.0
  0
SOLID
  5
EF4
100
AcDbEntity
  8
0
  6
BYBLOCK
 62
     0
100
AcDbTrace
 10
1737.958292
 20
741.290079
 30
0.0
 11
1740.764128
 21
741.290079
 31
0.0
 12
1739.36121
 22
732.87257
 32
0.0
 13
1739.36121
 23
732.87257
 33
0.0
  0
SOLID
  5
EF5
100
AcDbEntity
  8
0
  6
BYBLOCK
 62
     0
100
AcDbTrace
 10
1737.958292
 20
809.455062
 30
0.0
 11
1740.764128
 21
809.455062
 31
0.0
 12
1739.36121
 22
817.87257
 32
0.0
 13
1739.36121
 23
817.87257
 33
0.0
  0
MTEXT
  5
EF6
100
AcDbEntity
  8
0
  6
BYBLOCK
 62
     0
100
AcDbMText
 10
1727.256833
 20
775.37257
 30
0.0
 40
20.0
 41
0.0
 71
     5
 72
     1
  1
\A1;85
 11
0.0
 21
1.0
 31
0.0
  0
POINT
  5
EF7
100
AcDbEntity
  8
DEFPOINTS
  6
BYBLOCK
 62
     0
100
AcDbPoint
 10
1735.684624
 20
732.87257
 30
0.0
  0
POINT
  5
EF8
100
AcDbEntity
  8
DEFPOINTS
  6
BYBLOCK
 62
     0
100
AcDbPoint
 10
1736.389366
 20
817.87257
 30
0.0
  0
POINT
  5
EF9
100
AcDbEntity
  8
DEFPOINTS
  6
BYBLOCK
 62
     0
100
AcDbPoint
 10
1739.36121
 20
817.87257
 30
0.0
  0
ENDBLK
  5
EFA
100
AcDbEntity
  8
0
100
AcDbBlockEnd
  0
BLOCK
  5
F2E
100
AcDbEntity
  8
0
100
AcDbBlockBegin
  2
*D23
 70
     1
 10
0.0
 20
0.0
 30
0.0
  3
*D23
  1

  0
LINE
  5
F2F
100
AcDbEntity
  8
0
  6
BYBLOCK
 62
     0
100
AcDbLine
 10
1660.679945
 20
777.87257
 30
0.0
 11
1636.442881
 21
777.87257
 31
0.0
  0
LINE
  5
F30
100
AcDbEntity
  8
0
  6
BYBLOCK
 62
     0
100
AcDbLine
 10
1667.596411
 20
738.327116
 30
0.0
 11
1636.442881
 21
738.327116
 31
0.0
  0
LINE
  5
F31
100
AcDbEntity
  8
0
  6
BYBLOCK
 62
     0
100
AcDbLine
 10
1640.651635
 20
769.455062
 30
0.0
 11
1640.651635
 21
746.744624
 31
0.0
  0
SOLID
  5
F32
100
AcDbEntity
  8
0
  6
BYBLOCK
 62
     0
100
AcDbTrace
 10
1639.248717
 20
769.455062
 30
0.0
 11
1642.054553
 21
769.455062
 31
0.0
 12
1640.651635
 22
777.87257
 32
0.0
 13
1640.651635
 23
777.87257
 33
0.0
  0
SOLID
  5
F33
100
AcDbEntity
  8
0
  6
BYBLOCK
 62
     0
100
AcDbTrace
 10
1639.248717
 20
746.744624
 30
0.0
 11
1642.054553
 21
746.744624
 31
0.0
 12
1640.651635
 22
738.327116
 32
0.0
 13
1640.651635
 23
738.327116
 33
0.0
  0
MTEXT
  5
F34
100
AcDbEntity
  8
0
  6
BYBLOCK
 62
     0
100
AcDbMText
 10
1628.547258
 20
758.099843
 30
0.0
 40
20.0
 41
0.0
 71
     5
 72
     1
  1
\A1;40
 11
0.0
 21
1.0
 31
0.0
  0
POINT
  5
F35
100
AcDbEntity
  8
DEFPOINTS
  6
BYBLOCK
 62
     0
100
AcDbPoint
 10
1662.784322
 20
777.87257
 30
0.0
  0
POINT
  5
F36
100
AcDbEntity
  8
DEFPOINTS
  6
BYBLOCK
 62
     0
100
AcDbPoint
 10
1669.700789
 20
738.327116
 30
0.0
  0
POINT
  5
F37
100
AcDbEntity
  8
DEFPOINTS
  6
BYBLOCK
 62
     0
100
AcDbPoint
 10
1640.651635
 20
738.327116
 30
0.0
  0
ENDBLK
  5
F38
100
AcDbEntity
  8
0
100
AcDbBlockEnd
  0
BLOCK
  5
F9A
100
AcDbEntity
  8
0
100
AcDbBlockBegin
  2
*D24
 70
     1
 10
0.0
 20
0.0
 30
0.0
  3
*D24
  1

  0
LINE
  5
F9B
100
AcDbEntity
  8
0
  6
BYBLOCK
 62
     0
100
AcDbLine
 10
1531.389366
 20
860.238251
 30
0.0
 11
1531.389366
 21
927.715333
 31
0.0
  0
LINE
  5
F9C
100
AcDbEntity
  8
0
  6
BYBLOCK
 62
     0
100
AcDbLine
 10
1676.389366
 20
798.916128
 30
0.0
 11
1676.389366
 21
927.715333
 31
0.0
  0
LINE
  5
F9D
100
AcDbEntity
  8
0
  6
BYBLOCK
 62
     0
100
AcDbLine
 10
1539.806875
 20
923.506579
 30
0.0
 11
1667.971858
 21
923.506579
 31
0.0
  0
SOLID
  5
F9E
100
AcDbEntity
  8
0
  6
BYBLOCK
 62
     0
100
AcDbTrace
 10
1539.806875
 20
924.909497
 30
0.0
 11
1539.806875
 21
922.103661
 31
0.0
 12
1531.389366
 22
923.506579
 32
0.0
 13
1531.389366
 23
923.506579
 33
0.0
  0
SOLID
  5
F9F
100
AcDbEntity
  8
0
  6
BYBLOCK
 62
     0
100
AcDbTrace
 10
1667.971858
 20
924.909497
 30
0.0
 11
1667.971858
 21
922.103661
 31
0.0
 12
1676.389366
 22
923.506579
 32
0.0
 13
1676.389366
 23
923.506579
 33
0.0
  0
MTEXT
  5
FA0
100
AcDbEntity
  8
0
  6
BYBLOCK
 62
     0
100
AcDbMText
 10
1603.889366
 20
935.610956
 30
0.0
 40
20.0
 41
0.0
 71
     5
 72
     1
  1
\A1;145
  0
POINT
  5
FA1
100
AcDbEntity
  8
DEFPOINTS
  6
BYBLOCK
 62
     0
100
AcDbPoint
 10
1531.389366
 20
858.133874
 30
0.0
  0
POINT
  5
FA2
100
AcDbEntity
  8
DEFPOINTS
  6
BYBLOCK
 62
     0
100
AcDbPoint
 10
1676.389366
 20
796.811751
 30
0.0
  0
POINT
  5
FA3
100
AcDbEntity
  8
DEFPOINTS
  6
BYBLOCK
 62
     0
100
AcDbPoint
 10
1676.389366
 20
923.506579
 30
0.0
  0
ENDBLK
  5
FA4
100
AcDbEntity
  8
0
100
AcDbBlockEnd
  0
BLOCK
  5
FAF
100
AcDbEntity
  8
0
100
AcDbBlockBegin
  2
*D25
 70
     1
 10
0.0
 20
0.0
 30
0.0
  3
*D25
  1

  0
LINE
  5
FB0
100
AcDbEntity
  8
0
  6
BYBLOCK
 62
     0
100
AcDbLine
 10
2001.389366
 20
851.044015
 30
0.0
 11
2001.389366
 21
927.715333
 31
0.0
  0
LINE
  5
FB1
100
AcDbEntity
  8
0
  6
BYBLOCK
 62
     0
100
AcDbLine
 10
1684.806875
 20
923.506579
 30
0.0
 11
1992.971858
 21
923.506579
 31
0.0
  0
SOLID
  5
FB2
100
AcDbEntity
  8
0
  6
BYBLOCK
 62
     0
100
AcDbTrace
 10
1684.806875
 20
924.909497
 30
0.0
 11
1684.806875
 21
922.103661
 31
0.0
 12
1676.389366
 22
923.506579
 32
0.0
 13
1676.389366
 23
923.506579
 33
0.0
  0
SOLID
  5
FB3
100
AcDbEntity
  8
0
  6
BYBLOCK
 62
     0
100
AcDbTrace
 10
1992.971858
 20
924.909497
 30
0.0
 11
1992.971858
 21
922.103661
 31
0.0
 12
2001.389366
 22
923.506579
 32
0.0
 13
2001.389366
 23
923.506579
 33
0.0
  0
MTEXT
  5
FB4
100
AcDbEntity
  8
0
  6
BYBLOCK
 62
     0
100
AcDbMText
 10
1838.889366
 20
935.610956
 30
0.0
 40
20.0
 41
0.0
 71
     5
 72
     1
  1
\A1;325
  0
POINT
  5
FB5
100
AcDbEntity
  8
DEFPOINTS
  6
BYBLOCK
 62
     0
100
AcDbPoint
 10
1676.389366
 20
796.811751
 30
0.0
  0
POINT
  5
FB6
100
AcDbEntity
  8
DEFPOINTS
  6
BYBLOCK
 62
     0
100
AcDbPoint
 10
2001.389366
 20
848.939638
 30
0.0
  0
POINT
  5
FB7
100
AcDbEntity
  8
DEFPOINTS
  6
BYBLOCK
 62
     0
100
AcDbPoint
 10
2001.389366
 20
923.506579
 30
0.0
  0
ENDBLK
  5
FB8
100
AcDbEntity
  8
0
100
AcDbBlockEnd
  0
BLOCK
  5
FC5
100
AcDbEntity
  8
0
100
AcDbBlockBegin
  2
*D26
 70
     1
 10
0.0
 20
0.0
 30
0.0
  3
*D26
  1

  0
LINE
  5
FC6
100
AcDbEntity
  8
0
  6
BYBLOCK
 62
     0
100
AcDbLine
 10
2031.389366
 20
860.283788
 30
0.0
 11
2031.389366
 21
938.743428
 31
0.0
  0
LINE
  5
FC7
100
AcDbEntity
  8
0
  6
BYBLOCK
 62
     0
100
AcDbLine
 10
2001.389366
 20
851.044015
 30
0.0
 11
2001.389366
 21
938.743428
 31
0.0
  0
LINE
  5
FC8
100
AcDbEntity
  8
0
  6
BYBLOCK
 62
     0
100
AcDbLine
 10
2022.971858
 20
934.534674
 30
0.0
 11
2009.806875
 21
934.534674
 31
0.0
  0
LINE
  5
FC9
100
AcDbEntity
  8
0
  6
BYBLOCK
 62
     0
100
AcDbLine
 10
2001.389366
 20
934.534674
 30
0.0
 11
1958.763103
 21
934.534674
 31
0.0
  0
SOLID
  5
FCA
100
AcDbEntity
  8
0
  6
BYBLOCK
 62
     0
100
AcDbTrace
 10
2022.971858
 20
935.937592
 30
0.0
 11
2022.971858
 21
933.131756
 31
0.0
 12
2031.389366
 22
934.534674
 32
0.0
 13
2031.389366
 23
934.534674
 33
0.0
  0
SOLID
  5
FCB
100
AcDbEntity
  8
0
  6
BYBLOCK
 62
     0
100
AcDbTrace
 10
2009.806875
 20
935.937592
 30
0.0
 11
2009.806875
 21
933.131756
 31
0.0
 12
2001.389366
 22
934.534674
 32
0.0
 13
2001.389366
 23
934.534674
 33
0.0
  0
MTEXT
  5
FCC
100
AcDbEntity
  8
0
  6
BYBLOCK
 62
     0
100
AcDbMText
 10
1975.867481
 20
946.639051
 30
0.0
 40
20.0
 41
0.0
 71
     5
 72
     1
  1
\A1;30
  0
POINT
  5
FCD
100
AcDbEntity
  8
DEFPOINTS
  6
BYBLOCK
 62
     0
100
AcDbPoint
 10
2031.389366
 20
858.17941
 30
0.0
  0
POINT
  5
FCE
100
AcDbEntity
  8
DEFPOINTS
  6
BYBLOCK
 62
     0
100
AcDbPoint
 10
2001.389366
 20
848.939638
 30
0.0
  0
POINT
  5
FCF
100
AcDbEntity
  8
DEFPOINTS
  6
BYBLOCK
 62
     0
100
AcDbPoint
 10
2001.389366
 20
934.534674
 30
0.0
  0
ENDBLK
  5
FD0
100
AcDbEntity
  8
0
100
AcDbBlockEnd
  0
BLOCK
  5
FFC
100
AcDbEntity
  8
0
100
AcDbBlockBegin
  2
*D27
 70
     1
 10
0.0
 20
0.0
 30
0.0
  3
*D27
  1

  0
LINE
  5
FFD
100
AcDbEntity
  8
0
  6
BYBLOCK
 62
     0
100
AcDbLine
 10
222.006048
 20
1722.293319
 30
0.0
 11
147.155148
 21
1722.293319
 31
0.0
  0
LINE
  5
FFE
100
AcDbEntity
  8
0
  6
BYBLOCK
 62
     0
100
AcDbLine
 10
219.65939
 20
1397.293319
 30
0.0
 11
147.155148
 21
1397.293319
 31
0.0
  0
LINE
  5
FFF
100
AcDbEntity
  8
0
  6
BYBLOCK
 62
     0
100
AcDbLine
 10
151.363902
 20
1713.875811
 30
0.0
 11
151.363902
 21
1405.710827
 31
0.0
  0
SOLID
  5
1000
100
AcDbEntity
  8
0
  6
BYBLOCK
 62
     0
100
AcDbTrace
 10
149.960984
 20
1713.875811
 30
0.0
 11
152.76682
 21
1713.875811
 31
0.0
 12
151.363902
 22
1722.293319
 32
0.0
 13
151.363902
 23
1722.293319
 33
0.0
  0
SOLID
  5
1001
100
AcDbEntity
  8
0
  6
BYBLOCK
 62
     0
100
AcDbTrace
 10
149.960984
 20
1405.710827
 30
0.0
 11
152.76682
 21
1405.710827
 31
0.0
 12
151.363902
 22
1397.293319
 32
0.0
 13
151.363902
 23
1397.293319
 33
0.0
  0
MTEXT
  5
1002
100
AcDbEntity
  8
0
  6
BYBLOCK
 62
     0
100
AcDbMText
 10
139.259525
 20
1559.793319
 30
0.0
 40
20.0
 41
0.0
 71
     5
 72
     1
  1
\A1;325
 11
0.0
 21
1.0
 31
0.0
  0
POINT
  5
1003
100
AcDbEntity
  8
DEFPOINTS
  6
BYBLOCK
 62
     0
100
AcDbPoint
 10
224.110425
 20
1722.293319
 30
0.0
  0
POINT
  5
1004
100
AcDbEntity
  8
DEFPOINTS
  6
BYBLOCK
 62
     0
100
AcDbPoint
 10
221.763768
 20
1397.293319
 30
0.0
  0
POINT
  5
1005
100
AcDbEntity
  8
DEFPOINTS
  6
BYBLOCK
 62
     0
100
AcDbPoint
 10
151.363902
 20
1397.293319
 30
0.0
  0
ENDBLK
  5
1006
100
AcDbEntity
  8
0
100
AcDbBlockEnd
  0
ENDSEC
  0
SECTION
  2
ENTITIES
  0
LINE
  5
3C
100
AcDbEntity
  8
0
100
AcDbLine
 10
205.892646
 20
1842.293319
 30
0.0
 11
205.892646
 21
1252.293319
 31
0.0
  0
LINE
  5
3D
100
AcDbEntity
  8
0
100
AcDbLine
 10
205.892646
 20
842.87257
 30
0.0
 11
685.892646
 21
842.87257
 31
0.0
  0
LINE
  5
3E
100
AcDbEntity
  8
0
100
AcDbLine
 10
205.892646
 20
942.87257
 30
0.0
 11
685.892646
 21
942.87257
 31
0.0
  0
LINE
  5
3F
100
AcDbEntity
  8
0
100
AcDbLine
 10
685.892646
 20
1842.293319
 30
0.0
 11
685.892646
 21
1252.293319
 31
0.0
  0
LINE
  5
40
100
AcDbEntity
  8
0
100
AcDbLine
 10
1531.389366
 20
842.87257
 30
0.0
 11
1531.389366
 21
817.87257
 31
0.0
  0
LINE
  5
41
100
AcDbEntity
  8
0
100
AcDbLine
 10
2121.389366
 20
942.87257
 30
0.0
 11
2121.389366
 21
817.87257
 31
0.0
  0
LINE
  5
42
100
AcDbEntity
  8
0
100
AcDbLine
 10
205.892646
 20
1252.293319
 30
0.0
 11
685.892646
 21
1252.293319
 31
0.0
  0
LINE
  5
43
100
AcDbEntity
  8
0
100
AcDbLine
 10
205.892646
 20
1842.293319
 30
0.0
 11
685.892646
 21
1842.293319
 31
0.0
  0
LINE
  5
44
100
AcDbEntity
  8
0
100
AcDbLine
 10
685.892646
 20
842.87257
 30
0.0
 11
685.892646
 21
812.87257
 31
0.0
  0
LINE
  5
45
100
AcDbEntity
  8
0
100
AcDbLine
 10
205.892646
 20
842.87257
 30
0.0
 11
205.892646
 21
812.87257
 31
0.0
  0
LINE
  5
46
100
AcDbEntity
  8
0
100
AcDbLine
 10
2031.389366
 20
942.87257
 30
0.0
 11
2121.389366
 21
942.87257
 31
0.0
  0
LINE
  5
47
100
AcDbEntity
  8
0
100
AcDbLine
 10
1531.389366
 20
842.87257
 30
0.0
 11
2121.389366
 21
842.87257
 31
0.0
  0
LINE
  5
4B
100
AcDbEntity
  8
0
100
AcDbLine
 10
205.892646
 20
812.87257
 30
0.0
 11
685.892646
 21
812.87257
 31
0.0
  0
LINE
  5
4C
100
AcDbEntity
  8
0
100
AcDbLine
 10
1531.389366
 20
817.87257
 30
0.0
 11
2121.389366
 21
817.87257
 31
0.0
  0
LINE
  5
4D
100
AcDbEntity
  8
0
100
AcDbLine
 10
255.892646
 20
812.87257
 30
0.0
 11
255.892646
 21
82.87257
 31
0.0
  0
LINE
  5
4E
100
AcDbEntity
  8
0
100
AcDbLine
 10
635.892646
 20
812.87257
 30
0.0
 11
635.892646
 21
82.87257
 31
0.0
  0
LINE
  5
4F
100
AcDbEntity
  8
0
100
AcDbLine
 10
205.892646
 20
942.87257
 30
0.0
 11
205.892646
 21
842.87257
 31
0.0
  0
LINE
  5
50
100
AcDbEntity
  8
0
100
AcDbLine
 10
685.892646
 20
942.87257
 30
0.0
 11
685.892646
 21
842.87257
 31
0.0
  0
LINE
  5
9F
100
AcDbEntity
  8
0
100
AcDbLine
 10
205.892646
 20
1752.293319
 30
0.0
 11
685.892646
 21
1752.293319
 31
0.0
  0
LINE
  5
B9
100
AcDbEntity
  8
0
100
AcDbLine
 10
1497.641257
 20
42.87257
 30
0.0
 11
2211.383295
 21
42.87257
 31
0.0
  0
LINE
  5
BA
100
AcDbEntity
  8
0
100
AcDbLine
 10
1541.389366
 20
817.87257
 30
0.0
 11
1541.389366
 21
82.87257
 31
0.0
  0
LINE
  5
10C
100
AcDbEntity
  8
0
100
AcDbLine
 10
2031.389366
 20
942.87257
 30
0.0
 11
2031.389366
 21
842.87257
 31
0.0
  0
LINE
  5
15D
100
AcDbEntity
  8
0
100
AcDbLine
 10
2116.389366
 20
817.87257
 30
0.0
 11
2116.389366
 21
82.87257
 31
0.0
  0
ARC
  5
160
100
AcDbEntity
  8
0
  6
HIDDEN2
100
AcDbCircle
 10
1642.345828
 20
512.994726
 30
0.0
 40
21.0
100
AcDbArc
 50
90.0
 51
270.0
  0
LINE
  5
161
100
AcDbEntity
  8
0
  6
HIDDEN2
100
AcDbLine
 10
1642.345828
 20
533.994726
 30
0.0
 11
1776.389366
 21
533.994726
 31
0.0
  0
LINE
  5
163
100
AcDbEntity
  8
0
  6
HIDDEN2
100
AcDbLine
 10
1642.345828
 20
491.994726
 30
0.0
 11
1776.389366
 21
491.994726
 31
0.0
  0
LINE
  5
164
100
AcDbEntity
  8
0
  6
HIDDEN2
100
AcDbLine
 10
1642.345828
 20
533.994726
 30
0.0
 11
1610.269983
 21
525.279706
 31
0.0
  0
LINE
  5
166
100
AcDbEntity
  8
0
  6
HIDDEN2
100
AcDbLine
 10
1653.358015
 20
493.464098
 30
0.0
 11
1610.059798
 21
484.749079
 31
0.0
  0
LINE
  5
167
100
AcDbEntity
  8
0
  6
HIDDEN2
100
AcDbLine
 10
1667.970887
 20
533.994726
 30
0.0
 11
1667.970887
 21
491.994726
 31
0.0
  0
CIRCLE
  5
16F
100
AcDbEntity
  8
0
100
AcDbCircle
 10
445.892646
 20
305.551953
 30
0.0
 40
25.0
  0
INSERT
  5
19A
100
AcDbEntity
  8
0
100
AcDbBlockReference
  2
A$C3D4A0DE5
 10
1646.195408
 20
275.98591
 30
0.0
  0
INSERT
  5
19B
100
AcDbEntity
  8
0
100
AcDbBlockReference
  2
A$C3D4A0DE5
 10
1480.315032
 20
480.080144
 30
0.0
  0
INSERT
  5
1BA
100
AcDbEntity
  8
0
100
AcDbBlockReference
  2
A$C061D45EC
 10
355.55641
 20
333.530762
 30
0.0
  0
LINE
  5
1C8
100
AcDbEntity
  8
0
100
AcDbLine
 10
1462.546431
 20
1805.25039
 30
0.0
 11
2163.263294
 21
1805.25039
 31
0.0
  0
LINE
  5
1CB
100
AcDbEntity
  8
0
100
AcDbLine
 10
1462.546431
 20
1755.25039
 30
0.0
 11
2163.263294
 21
1755.25039
 31
0.0
  0
LINE
  5
1CC
100
AcDbEntity
  8
0
100
AcDbLine
 10
1462.546431
 20
1705.25039
 30
0.0
 11
2163.263294
 21
1705.25039
 31
0.0
  0
LINE
  5
1CD
100
AcDbEntity
  8
0
100
AcDbLine
 10
1462.546431
 20
1655.25039
 30
0.0
 11
2163.263294
 21
1655.25039
 31
0.0
  0
LINE
  5
1CE
100
AcDbEntity
  8
0
100
AcDbLine
 10
1462.546431
 20
1605.25039
 30
0.0
 11
2163.263294
 21
1605.25039
 31
0.0
  0
LINE
  5
1CF
100
AcDbEntity
  8
0
100
AcDbLine
 10
1462.546431
 20
1555.25039
 30
0.0
 11
2163.263294
 21
1555.25039
 31
0.0
  0
LINE
  5
1D0
100
AcDbEntity
  8
0
100
AcDbLine
 10
1462.546431
 20
1505.25039
 30
0.0
 11
2163.263294
 21
1505.25039
 31
0.0
  0
LINE
  5
1D1
100
AcDbEntity
  8
0
100
AcDbLine
 10
1462.546431
 20
1455.25039
 30
0.0
 11
2163.263294
 21
1455.25039
 31
0.0
  0
LINE
  5
1D2
100
AcDbEntity
  8
0
100
AcDbLine
 10
1462.546431
 20
1405.25039
 30
0.0
 11
2163.263294
 21
1405.25039
 31
0.0
  0
LINE
  5
1D4
100
AcDbEntity
  8
0
100
AcDbLine
 10
1462.546431
 20
1805.25039
 30
0.0
 11
1462.546431
 21
1405.25039
 31
0.0
  0
DIMENSION
  5
7E9
100
AcDbEntity
  8
0
  6
DASHED2
100
AcDbDimension
  2
*D3
 10
881.824999
 20
42.87257
 30
0.0
 11
869.720622
 21
492.87257
 31
0.0
 70
    32
  3
STANDARD_WS
100
AcDbAlignedDimension
 13
702.151758
 23
942.87257
 33
0.0
 14
803.756568
 24
42.87257
 34
0.0
 50
90.0
100
AcDbRotatedDimension
  0
LEADER
  5
87B
100
AcDbEntity
  8
0
100
AcDbLeader
  3
STANDARD_WS
 73
     0
 74
     0
 75
     1
 40
27.272727
 41
204.090909
 76
     3
 10
444.22003
 20
291.37931
 30
0.0
 10
399.951939
 20
188.136918
 30
0.0
 10
408.369448
 20
188.136918
 30
0.0
 77
   256
340
87C
213
-3.854215968480104
223
0.0
233
0.0
  0
MTEXT
  5
87C
102
{ACAD_REACTORS
330
87B
102
}
100
AcDbEntity
  8
0
100
AcDbMText
 10
414.328041
 20
203.877658
 30
0.0
 40
20.0
 41
0.0
 71
     4
 72
     1
  1
\A1;\fMS UI Gothic|b0|i0|c128|p50;排水バルブ　４０A
  0
MTEXT
  5
884
100
AcDbEntity
  8
0
100
AcDbMText
 10
1829.33632
 20
560.151295
 30
0.0
 40
20.0
 41
0.0
 71
     4
 72
     1
  1
\A1;\fMS UI Gothic|b0|i0|c128|p50;空冷管
  0
MTEXT
  5
8A5
100
AcDbEntity
  8
0
100
AcDbMText
 10
1477.374699
 20
1700.553212
 30
0.0
 40
30.0
 41
0.0
 71
     1
 72
     5
  1
\fMS UI Gothic|b0|i0|c128|p50;油槽寸法
  0
MTEXT
  5
8A7
100
AcDbEntity
  8
0
100
AcDbMText
 10
1474.580573
 20
1601.904346
 30
0.0
 40
30.0
 41
0.0
 71
     1
 72
     5
  1
\fMS UI Gothic|b0|i0|c128|p50;制御範囲
  0
MTEXT
  5
8A8
100
AcDbEntity
  8
0
100
AcDbMText
 10
1474.580573
 20
1546.99601
 30
0.0
 40
30.0
 41
0.0
 71
     1
 72
     5
  1
\fMS UI Gothic|b0|i0|c128|p50;制御方法
  0
MTEXT
  5
8AD
100
AcDbEntity
  8
0
100
AcDbMText
 10
1479.237449
 20
1802.924683
 30
0.0
 40
30.0
 41
1.533
 71
     1
 72
     5
  1
\fMS UI Gothic|b0|i0|c128|p50;型　　　式
  0
MTEXT
  5
8AE
100
AcDbEntity
  8
0
100
AcDbMText
 10
1479.237449
 20
1748.016353
 30
0.0
 40
30.0
 41
0.0
 71
     1
 72
     5
  1
\fMS UI Gothic|b0|i0|c128|p50;寸　　　法
  0
MTEXT
  5
8AF
100
AcDbEntity
  8
0
100
AcDbMText
 10
1477.374699
 20
1649.36748
 30
0.0
 40
30.0
 41
0.0
 71
     1
 72
     5
  1
\fMS UI Gothic|b0|i0|c128|p50;油　　　量
  0
MTEXT
  5
8B0
100
AcDbEntity
  8
0
100
AcDbMText
 10
1474.580573
 20
1449.277789
 30
0.0
 40
30.0
 41
1.533
 71
     1
 72
     5
  1
\fMS UI Gothic|b0|i0|c128|p50;重　　　量
  0
LINE
  5
8B2
100
AcDbEntity
  8
0
100
AcDbLine
 10
1662.546431
 20
1805.25039
 30
0.0
 11
1662.546431
 21
1405.25039
 31
0.0
  0
MTEXT
  5
8B4
100
AcDbEntity
  8
0
100
AcDbMText
 10
1689.207514
 20
1797.340787
 30
0.0
 40
30.0
 41
1.6564
 71
     1
 72
     5
  1
\fMS UI Gothic|b0|i0|c128|p50;ＲＫ-４０型
  0
MTEXT
  5
8B5
100
AcDbEntity
  8
0
100
AcDbMText
 10
1689.207514
 20
1742.432451
 30
0.0
 40
30.0
 41
0.0
 71
     1
 72
     5
  1
\fMS UI Gothic|b0|i0|c128|p50;W４８０×D５９０×H８００
  0
MTEXT
  5
8B6
100
AcDbEntity
  8
0
100
AcDbMText
 10
1687.551129
 20
1696.830615
 30
0.0
 40
30.0
 41
1.6564
 71
     1
 72
     5
  1
\fMS UI Gothic|b0|i0|c128|p50;W４１５×D３２５
  0
MTEXT
  5
8B7
100
AcDbEntity
  8
0
100
AcDbMText
 10
1687.551129
 20
1644.71423
 30
0.0
 40
30.0
 41
0.0
 71
     1
 72
     5
  1
\fMS UI Gothic|b0|i0|c128|p50;２０L
  0
MTEXT
  5
8B8
100
AcDbEntity
  8
0
100
AcDbMText
 10
1687.551129
 20
1596.320443
 30
0.0
 40
30.0
 41
1.6564
 71
     1
 72
     5
  1
\fMS UI Gothic|b0|i0|c128|p50;
  0
MTEXT
  5
8B9
100
AcDbEntity
  8
0
100
AcDbMText
 10
1685.894752
 20
1549.787961
 30
0.0
 40
30.0
 41
265.020818
 71
     1
 72
     5
  1
\fMS UI Gothic|b0|i0|c128|p50;比例制御方式
  0
MTEXT
  5
8BB
100
AcDbEntity
  8
0
100
AcDbMText
 10
1685.894752
 20
1445.555191
 30
0.0
 40
30.0
 41
0.0
 71
     1
 72
     5
  1
\fMS UI Gothic|b0|i0|c128|p50;４０Kg
  0
LINE
  5
8BC
100
AcDbEntity
  8
0
100
AcDbLine
 10
2163.263294
 20
1805.25039
 30
0.0
 11
2163.263294
 21
1405.25039
 31
0.0
  0
LWPOLYLINE
  5
8BD
100
AcDbEntity
  8
0
100
AcDbPolyline
 90
        4
 70
     1
 43
0.0
 10
-473.980063
 20
2100.803126
 10
2716.199534
 20
2100.803126
 10
2716.199534
 20
-271.990411
 10
-473.980063
 20
-271.990411
  0
LWPOLYLINE
  5
8BE
100
AcDbEntity
  8
0
100
AcDbPolyline
 90
        4
 70
     1
 43
0.0
 10
1196.422923
 20
-124.782383
 10
2703.656705
 20
-124.782383
 10
2703.656705
 20
-256.146895
 10
1196.422923
 20
-256.146895
  0
MTEXT
  5
8C0
100
AcDbEntity
  8
0
100
AcDbMText
 10
1218.272509
 20
-159.840523
 30
0.0
 40
50.0
 41
0.0
 71
     1
 72
     5
  1
\fMS UI Gothic|b0|i0|c128|p50;ウォーターフライヤー株式会社
  0
LINE
  5
8C1
100
AcDbEntity
  8
0
100
AcDbLine
 10
2065.499509
 20
-124.800801
 30
0.0
 11
2065.499509
 21
-256.126581
 31
0.0
  0
LINE
  5
8C5
100
AcDbEntity
  8
0
100
AcDbLine
 10
2145.499509
 20
-124.800801
 30
0.0
 11
2145.499509
 21
-256.126581
 31
0.0
  0
MTEXT
  5
8C6
100
AcDbEntity
  8
0
100
AcDbMText
 10
2089.259136
 20
-161.867547
 30
0.0
 40
20.0
 41
12.192542
 71
     1
 72
     5
  1
\fMS UI Gothic|b0|i0|c128|p50;型式
  0
MTEXT
  5
8C7
100
AcDbEntity
  8
0
100
AcDbMText
 10
2228.595446
 20
-163.399296
 30
0.0
 40
50.0
 41
423.15674
 71
     1
 72
     5
  1
\fMS UI Gothic|b0|i0|c128|p50;ＲＫ-４０型
  0
DIMENSION
  5
8E6
100
AcDbEntity
  8
0
  6
DASHED2
100
AcDbDimension
  2
*D4
 10
685.892646
 20
1045.681476
 30
0.0
 11
445.892646
 21
1057.785853
 31
0.0
 70
    32
  3
STANDARD_WS
100
AcDbAlignedDimension
 13
205.892646
 23
960.575773
 33
0.0
 14
685.892646
 24
960.575773
 34
0.0
100
AcDbRotatedDimension
  0
DIMENSION
  5
916
100
AcDbEntity
  8
0
  6
DASHED2
100
AcDbDimension
  2
*D5
 10
685.892646
 20
1936.682427
 30
0.0
 11
445.892646
 21
1948.786804
 31
0.0
 70
    32
  3
STANDARD_WS
100
AcDbAlignedDimension
 13
205.892646
 23
1861.244735
 33
0.0
 14
685.892646
 24
1861.244735
 34
0.0
100
AcDbRotatedDimension
  0
DIMENSION
  5
963
100
AcDbEntity
  8
0
  6
DASHED2
100
AcDbDimension
  2
*D6
 10
814.138686
 20
1252.293319
 30
0.0
 11
814.138686
 21
1630.961067
 31
0.0
 70
   160
  3
STANDARD_WS
100
AcDbAlignedDimension
 13
698.438902
 23
1842.293319
 33
0.0
 14
696.371296
 24
1252.293319
 34
0.0
 50
90.0
100
AcDbRotatedDimension
  0
LINE
  5
964
100
AcDbEntity
  8
0
100
AcDbLine
 10
238.392646
 20
1722.293319
 30
0.0
 11
653.392646
 21
1722.293319
 31
0.0
  0
LINE
  5
966
100
AcDbEntity
  8
0
100
AcDbLine
 10
238.392646
 20
1722.293319
 30
0.0
 11
238.392646
 21
1397.293319
 31
0.0
  0
LINE
  5
967
100
AcDbEntity
  8
0
100
AcDbLine
 10
653.392646
 20
1722.293319
 30
0.0
 11
653.392646
 21
1397.293319
 31
0.0
  0
LINE
  5
96C
100
AcDbEntity
  8
0
100
AcDbLine
 10
238.392646
 20
1457.293319
 30
0.0
 11
653.392646
 21
1457.293319
 31
0.0
  0
LINE
  5
96E
100
AcDbEntity
  8
0
100
AcDbLine
 10
480.892646
 20
1722.293319
 30
0.0
 11
480.892646
 21
1457.293319
 31
0.0
  0
LINE
  5
96F
100
AcDbEntity
  8
0
100
AcDbLine
 10
410.892646
 20
1722.293319
 30
0.0
 11
410.892646
 21
1457.293319
 31
0.0
  0
LINE
  5
970
100
AcDbEntity
  8
0
100
AcDbLine
 10
550.892646
 20
1722.293319
 30
0.0
 11
550.892646
 21
1457.293319
 31
0.0
  0
LINE
  5
971
100
AcDbEntity
  8
0
100
AcDbLine
 10
340.892646
 20
1722.293319
 30
0.0
 11
340.892646
 21
1457.293319
 31
0.0
  0
LINE
  5
972
100
AcDbEntity
  8
0
100
AcDbLine
 10
570.892646
 20
1722.293319
 30
0.0
 11
570.892646
 21
1457.293319
 31
0.0
  0
LINE
  5
973
100
AcDbEntity
  8
0
100
AcDbLine
 10
320.892646
 20
1722.293319
 30
0.0
 11
320.892646
 21
1457.293319
 31
0.0
  0
LINE
  5
974
100
AcDbEntity
  8
0
100
AcDbLine
 10
630.892646
 20
1722.293319
 30
0.0
 11
630.892646
 21
1457.293319
 31
0.0
  0
LINE
  5
975
100
AcDbEntity
  8
0
100
AcDbLine
 10
260.892646
 20
1722.293319
 30
0.0
 11
260.892646
 21
1457.293319
 31
0.0
  0
LINE
  5
976
100
AcDbEntity
  8
0
100
AcDbLine
 10
340.892646
 20
1825.293319
 30
0.0
 11
550.892646
 21
1825.293319
 31
0.0
  0
LINE
  5
977
100
AcDbEntity
  8
0
100
AcDbLine
 10
340.892646
 20
1768.293319
 30
0.0
 11
550.892646
 21
1768.293319
 31
0.0
  0
LINE
  5
978
100
AcDbEntity
  8
0
100
AcDbLine
 10
340.892646
 20
1825.293319
 30
0.0
 11
340.892646
 21
1768.293319
 31
0.0
  0
LINE
  5
979
100
AcDbEntity
  8
0
100
AcDbLine
 10
550.892646
 20
1825.293319
 30
0.0
 11
550.892646
 21
1768.293319
 31
0.0
  0
LINE
  5
97C
100
AcDbEntity
  8
0
100
AcDbLine
 10
350.892646
 20
1815.293319
 30
0.0
 11
540.892646
 21
1815.293319
 31
0.0
  0
LINE
  5
97D
100
AcDbEntity
  8
0
100
AcDbLine
 10
350.892646
 20
1778.293319
 30
0.0
 11
540.892646
 21
1778.293319
 31
0.0
  0
LINE
  5
97E
100
AcDbEntity
  8
0
100
AcDbLine
 10
350.892646
 20
1815.293319
 30
0.0
 11
350.892646
 21
1778.293319
 31
0.0
  0
LINE
  5
97F
100
AcDbEntity
  8
0
100
AcDbLine
 10
540.892646
 20
1815.293319
 30
0.0
 11
540.892646
 21
1778.293319
 31
0.0
  0
LWPOLYLINE
  5
980
100
AcDbEntity
  8
0
100
AcDbPolyline
 90
        4
 70
     1
 43
0.0
 10
639.563791
 20
1614.990808
 10
642.970021
 20
1614.990808
 10
642.970021
 20
1499.269346
 10
639.563791
 20
1499.269346
  0
INSERT
  5
988
100
AcDbEntity
  8
0
100
AcDbBlockReference
  2
A$C4F2B35B1
 10
644.691091
 20
1499.132509
 30
0.0
  0
LINE
  5
989
100
AcDbEntity
  8
0
100
AcDbLine
 10
641.385935
 20
1499.169051
 30
0.0
 11
641.385935
 21
1457.293319
 31
0.0
  0
LINE
  5
98A
100
AcDbEntity
  8
0
100
AcDbLine
 10
646.244941
 20
1499.169051
 30
0.0
 11
646.244941
 21
1457.293319
 31
0.0
  0
CIRCLE
  5
9A5
100
AcDbEntity
  8
0
100
AcDbCircle
 10
660.892646
 20
62.87257
 30
0.0
 40
20.0
  0
CIRCLE
  5
9A6
100
AcDbEntity
  8
0
100
AcDbCircle
 10
230.892646
 20
62.87257
 30
0.0
 40
20.0
  0
LINE
  5
9A7
100
AcDbEntity
  8
0
100
AcDbLine
 10
2116.389366
 20
82.87257
 30
0.0
 11
1541.389366
 21
82.87257
 31
0.0
  0
LINE
  5
9AC
100
AcDbEntity
  8
0
100
AcDbLine
 10
255.892646
 20
82.87257
 30
0.0
 11
210.892646
 21
82.87257
 31
0.0
  0
CIRCLE
  5
9B1
100
AcDbEntity
  8
0
100
AcDbCircle
 10
2098.389366
 20
62.87257
 30
0.0
 40
20.0
  0
CIRCLE
  5
9B2
100
AcDbEntity
  8
0
100
AcDbCircle
 10
1561.389366
 20
62.87257
 30
0.0
 40
20.0
  0
LINE
  5
9B5
100
AcDbEntity
  8
0
100
AcDbLine
 10
680.892646
 20
82.87257
 30
0.0
 11
635.892646
 21
82.87257
 31
0.0
  0
LINE
  5
9B6
100
AcDbEntity
  8
0
100
AcDbLine
 10
230.892646
 20
42.87257
 30
0.0
 11
660.892646
 21
42.87257
 31
0.0
  0
LINE
  5
9B7
100
AcDbEntity
  8
0
100
AcDbLine
 10
255.892646
 20
507.87257
 30
0.0
 11
635.892646
 21
507.87257
 31
0.0
  0
LINE
  5
9B8
100
AcDbEntity
  8
0
100
AcDbLine
 10
255.892646
 20
567.87257
 30
0.0
 11
635.892646
 21
567.87257
 31
0.0
  0
LINE
  5
9B9
100
AcDbEntity
  8
0
100
AcDbLine
 10
255.892646
 20
587.87257
 30
0.0
 11
635.892646
 21
587.87257
 31
0.0
  0
LINE
  5
9BA
100
AcDbEntity
  8
0
100
AcDbLine
 10
255.892646
 20
707.87257
 30
0.0
 11
635.892646
 21
707.87257
 31
0.0
  0
LINE
  5
9BB
100
AcDbEntity
  8
0
100
AcDbLine
 10
255.892646
 20
727.87257
 30
0.0
 11
635.892646
 21
727.87257
 31
0.0
  0
LINE
  5
9BC
100
AcDbEntity
  8
0
100
AcDbLine
 10
210.892646
 20
812.87257
 30
0.0
 11
210.892646
 21
82.87257
 31
0.0
  0
LINE
  5
9BD
100
AcDbEntity
  8
0
100
AcDbLine
 10
680.892646
 20
812.87257
 30
0.0
 11
680.892646
 21
82.87257
 31
0.0
  0
LINE
  5
9C1
100
AcDbEntity
  8
0
100
AcDbLine
 10
385.892646
 20
672.675558
 30
0.0
 11
505.892646
 21
672.675558
 31
0.0
  0
LINE
  5
9C2
100
AcDbEntity
  8
0
100
AcDbLine
 10
385.892646
 20
682.675558
 30
0.0
 11
505.892646
 21
682.675558
 31
0.0
  0
CIRCLE
  5
9C4
100
AcDbEntity
  8
0
100
AcDbCircle
 10
445.892646
 20
644.044346
 30
0.0
 40
15.0
  0
ARC
  5
9C5
100
AcDbEntity
  8
0
100
AcDbCircle
 10
385.892646
 20
677.675558
 30
0.0
 40
5.0
100
AcDbArc
 50
90.0
 51
270.0
  0
ARC
  5
9C6
100
AcDbEntity
  8
0
100
AcDbCircle
 10
505.892646
 20
677.675558
 30
0.0
 40
5.0
100
AcDbArc
 50
270.0
 51
90.0
  0
INSERT
  5
9D4
100
AcDbEntity
  8
0
100
AcDbBlockReference
  2
A$C560405F2
 10
356.171113
 20
449.816945
 30
0.0
  0
DIMENSION
  5
9E1
100
AcDbEntity
  8
0
  6
DASHED2
100
AcDbDimension
  2
*D9
 10
801.39488
 20
42.87257
 30
0.0
 11
801.39488
 21
590.285126
 31
0.0
 70
   160
  3
STANDARD_WS
100
AcDbAlignedDimension
 13
703.137979
 23
842.87257
 33
0.0
 14
700.680289
 24
42.87257
 34
0.0
 50
90.0
100
AcDbRotatedDimension
  0
DIMENSION
  5
9EE
100
AcDbEntity
  8
0
  6
DASHED2
100
AcDbDimension
  2
*D10
 10
800.792951
 20
942.87257
 30
0.0
 11
788.688573
 21
892.87257
 31
0.0
 70
    32
  3
STANDARD_WS
100
AcDbAlignedDimension
 13
703.137979
 23
842.87257
 33
0.0
 14
705.548974
 24
942.87257
 34
0.0
 50
90.0
100
AcDbRotatedDimension
  0
LINE
  5
9F4
100
AcDbEntity
  8
0
  6
HIDDEN2
100
AcDbLine
 10
1736.389366
 20
732.87257
 30
0.0
 11
1736.389366
 21
637.87257
 31
0.0
  0
LINE
  5
9F7
100
AcDbEntity
  8
0
100
AcDbLine
 10
685.892646
 20
1752.293319
 30
0.0
 11
653.392646
 21
1722.293319
 31
0.0
  0
LINE
  5
9F9
100
AcDbEntity
  8
0
100
AcDbLine
 10
205.892646
 20
1752.293319
 30
0.0
 11
238.392646
 21
1722.293319
 31
0.0
  0
LINE
  5
9FC
100
AcDbEntity
  8
0
  6
HIDDEN2
100
AcDbLine
 10
2031.389366
 20
842.87257
 30
0.0
 11
2001.389366
 21
817.87257
 31
0.0
  0
LINE
  5
9FD
100
AcDbEntity
  8
0
  6
HIDDEN2
100
AcDbLine
 10
2001.389366
 20
817.87257
 30
0.0
 11
2001.389366
 21
298.561276
 31
0.0
  0
LINE
  5
A0D
100
AcDbEntity
  8
0
  6
HIDDEN2
100
AcDbLine
 10
1736.389366
 20
722.87257
 30
0.0
 11
2001.389366
 21
722.87257
 31
0.0
  0
LINE
  5
A0E
100
AcDbEntity
  8
0
  6
HIDDEN2
100
AcDbLine
 10
1736.389366
 20
652.87257
 30
0.0
 11
2001.389366
 21
652.87257
 31
0.0
  0
LINE
  5
A0F
100
AcDbEntity
  8
0
  6
HIDDEN2
100
AcDbLine
 10
1776.389366
 20
592.87257
 30
0.0
 11
2001.389366
 21
592.87257
 31
0.0
  0
LINE
  5
A10
100
AcDbEntity
  8
0
  6
HIDDEN2
100
AcDbLine
 10
1776.389366
 20
532.87257
 30
0.0
 11
2001.389366
 21
532.87257
 31
0.0
  0
LINE
  5
A13
100
AcDbEntity
  8
0
  6
HIDDEN2
100
AcDbLine
 10
1736.389366
 20
637.87257
 30
0.0
 11
1776.389366
 21
617.87257
 31
0.0
  0
LINE
  5
A14
100
AcDbEntity
  8
0
  6
HIDDEN2
100
AcDbLine
 10
1776.389366
 20
617.87257
 30
0.0
 11
1776.389366
 21
282.87257
 31
0.0
  0
LINE
  5
A16
100
AcDbEntity
  8
0
100
AcDbLine
 10
280.892646
 20
282.87257
 30
0.0
 11
610.892646
 21
282.87257
 31
0.0
  0
DIMENSION
  5
A23
100
AcDbEntity
  8
0
  6
DASHED2
100
AcDbDimension
  2
*D11
 10
760.453828
 20
1752.293319
 30
0.0
 11
748.349451
 21
1797.293319
 31
0.0
 70
    32
  3
STANDARD_WS
100
AcDbAlignedDimension
 13
698.438902
 23
1842.293319
 33
0.0
 14
695.892497
 24
1752.293319
 34
0.0
 50
90.0
100
AcDbRotatedDimension
  0
DIMENSION
  5
A55
100
AcDbEntity
  8
0
  6
DASHED2
100
AcDbDimension
  2
*D12
 10
759.233155
 20
1252.293319
 30
0.0
 11
759.233155
 21
1581.773796
 31
0.0
 70
   160
  3
STANDARD_WS
100
AcDbAlignedDimension
 13
695.892497
 23
1752.293319
 33
0.0
 14
696.371296
 24
1252.293319
 34
0.0
 50
90.0
100
AcDbRotatedDimension
  0
DIMENSION
  5
A62
100
AcDbEntity
  8
0
  6
DASHED2
100
AcDbDimension
  2
*D13
 10
340.892646
 20
1877.657122
 30
0.0
 11
273.392646
 21
1889.761499
 31
0.0
 70
    32
  3
STANDARD_WS
100
AcDbAlignedDimension
 13
205.892646
 23
1855.125486
 33
0.0
 14
340.892646
 24
1834.770164
 34
0.0
100
AcDbRotatedDimension
  0
DIMENSION
  5
A6E
100
AcDbEntity
  8
0
  6
DASHED2
100
AcDbDimension
  2
*D14
 10
550.892646
 20
1877.657122
 30
0.0
 11
445.892646
 21
1889.761499
 31
0.0
 70
    32
  3
STANDARD_WS
100
AcDbAlignedDimension
 13
340.892646
 23
1834.770164
 33
0.0
 14
550.892646
 24
1834.770164
 34
0.0
100
AcDbRotatedDimension
1001
ACAD
1000
DSTYLE
1002
{
1070
    75
1070
     1
1070
   287
1070
     4
1002
}
  0
DIMENSION
  5
A7A
100
AcDbEntity
  8
0
  6
DASHED2
100
AcDbDimension
  2
*D15
 10
685.892646
 20
1877.657122
 30
0.0
 11
618.392646
 21
1889.761499
 31
0.0
 70
    32
  3
STANDARD_WS
100
AcDbAlignedDimension
 13
550.892646
 23
1834.770164
 33
0.0
 14
685.892646
 24
1852.581071
 34
0.0
100
AcDbRotatedDimension
1001
ACAD
1000
DSTYLE
1002
{
1070
    75
1070
     1
1070
   287
1070
     4
1002
}
  0
DIMENSION
  5
A87
100
AcDbEntity
  8
0
  6
DASHED2
100
AcDbDimension
  2
*D16
 10
597.802868
 20
1768.293319
 30
0.0
 11
585.698491
 21
1796.793319
 31
0.0
 70
    32
  3
STANDARD_WS
100
AcDbAlignedDimension
 13
560.933266
 23
1825.293319
 33
0.0
 14
563.479671
 24
1768.293319
 34
0.0
 50
90.0
100
AcDbRotatedDimension
  0
LINE
  5
A88
100
AcDbEntity
  8
0
100
AcDbLine
 10
340.892646
 20
1002.87257
 30
0.0
 11
550.892646
 21
1002.87257
 31
0.0
  0
LINE
  5
A89
100
AcDbEntity
  8
0
100
AcDbLine
 10
550.892646
 20
1002.87257
 30
0.0
 11
550.892646
 21
942.87257
 31
0.0
  0
LINE
  5
A8A
100
AcDbEntity
  8
0
100
AcDbLine
 10
340.892646
 20
1002.87257
 30
0.0
 11
340.892646
 21
942.87257
 31
0.0
  0
LINE
  5
A8B
100
AcDbEntity
  8
0
100
AcDbLine
 10
340.892646
 20
1722.293319
 30
0.0
 11
340.892646
 21
1457.293319
 31
0.0
  0
LINE
  5
A8C
100
AcDbEntity
  8
0
100
AcDbLine
 10
550.892646
 20
1722.293319
 30
0.0
 11
550.892646
 21
1457.293319
 31
0.0
  0
DIMENSION
  5
A99
100
AcDbEntity
  8
0
  6
DASHED2
100
AcDbDimension
  2
*D17
 10
596.118748
 20
942.87257
 30
0.0
 11
584.014371
 21
972.87257
 31
0.0
 70
    32
  3
STANDARD_WS
100
AcDbAlignedDimension
 13
562.342276
 23
1002.87257
 33
0.0
 14
550.892646
 24
942.87257
 34
0.0
 50
90.0
100
AcDbRotatedDimension
  0
LINE
  5
AA5
100
AcDbEntity
  8
0
  6
HIDDEN2
100
AcDbLine
 10
1776.389366
 20
282.87257
 30
0.0
 11
2001.389366
 21
298.561276
 31
0.0
  0
LINE
  5
AA9
100
AcDbEntity
  8
0
100
AcDbLine
 10
610.892646
 20
507.87257
 30
0.0
 11
610.892646
 21
458.595584
 31
0.0
  0
LINE
  5
AAA
100
AcDbEntity
  8
0
100
AcDbLine
 10
280.892646
 20
507.87257
 30
0.0
 11
280.892646
 21
458.595584
 31
0.0
  0
LINE
  5
AAB
100
AcDbEntity
  8
0
100
AcDbLine
 10
2046.389366
 20
1002.87257
 30
0.0
 11
2103.389366
 21
1002.87257
 31
0.0
  0
LINE
  5
AAC
100
AcDbEntity
  8
0
100
AcDbLine
 10
2046.389366
 20
1002.87257
 30
0.0
 11
2046.389366
 21
942.87257
 31
0.0
  0
LINE
  5
AAD
100
AcDbEntity
  8
0
100
AcDbLine
 10
2103.389366
 20
1002.87257
 30
0.0
 11
2103.389366
 21
942.87257
 31
0.0
  0
LINE
  5
AAE
100
AcDbEntity
  8
0
  6
HIDDEN2
100
AcDbLine
 10
2001.389366
 20
737.87257
 30
0.0
 11
2103.389366
 21
737.87257
 31
0.0
  0
LINE
  5
AB0
100
AcDbEntity
  8
0
  6
HIDDEN2
100
AcDbLine
 10
2001.389366
 20
517.87257
 30
0.0
 11
2103.389366
 21
561.228057
 31
0.0
  0
LINE
  5
AB4
100
AcDbEntity
  8
0
  6
HIDDEN2
100
AcDbLine
 10
2103.389366
 20
737.87257
 30
0.0
 11
2103.389366
 21
561.228057
 31
0.0
  0
LINE
  5
AB5
100
AcDbEntity
  8
0
  6
HIDDEN2
100
AcDbLine
 10
2049.389366
 20
942.87257
 30
0.0
 11
2049.389366
 21
737.87257
 31
0.0
  0
LINE
  5
AB6
100
AcDbEntity
  8
0
  6
HIDDEN2
100
AcDbLine
 10
2100.389366
 20
939.87257
 30
0.0
 11
2100.389366
 21
737.87257
 31
0.0
  0
LINE
  5
AB7
100
AcDbEntity
  8
0
  6
HIDDEN2
100
AcDbLine
 10
2077.427177
 20
864.080598
 30
0.0
 11
2077.427177
 21
656.531219
 31
0.0
  0
LINE
  5
AB8
100
AcDbEntity
  8
0
  6
HIDDEN2
100
AcDbLine
 10
2077.427177
 20
656.531219
 30
0.0
 11
2001.389366
 21
620.25729
 31
0.0
  0
LWPOLYLINE
  5
C29
100
AcDbEntity
  8
0
  6
HIDDEN2
100
AcDbPolyline
 90
        4
 70
     1
 43
0.0
 10
1613.750278
 20
717.76491
 10
1732.679191
 20
730.72886
 10
1732.679191
 20
596.768069
 10
1613.750278
 20
596.768069
  0
LWPOLYLINE
  5
C2A
100
AcDbEntity
  8
0
  6
HIDDEN2
100
AcDbPolyline
 90
        4
 70
     1
 43
0.0
 10
1641.860163
 20
619.000414
 10
1713.467026
 20
619.000414
 10
1713.467026
 20
588.995141
 10
1641.860163
 20
588.995141
  0
LWPOLYLINE
  5
C2E
100
AcDbEntity
  8
0
100
AcDbPolyline
 90
        4
 70
     1
 43
0.0
 10
348.978696
 20
461.292511
 10
393.133289
 20
461.292511
 10
393.133289
 20
435.674354
 10
348.978696
 20
435.674354
  0
CIRCLE
  5
C2F
100
AcDbEntity
  8
0
100
AcDbCircle
 10
370.933191
 20
448.48343
 30
0.0
 40
11.385849
  0
LWPOLYLINE
  5
C32
100
AcDbEntity
  8
0
100
AcDbPolyline
 90
        4
 70
     1
 43
0.0
 10
605.761434
 20
401.516808
 10
633.831879
 20
401.516808
 10
633.831879
 20
352.089943
 10
605.761434
 20
352.089943
  0
CIRCLE
  5
C33
100
AcDbEntity
  8
0
100
AcDbCircle
 10
521.04585
 20
450.291181
 30
0.0
 40
24.19493
  0
CIRCLE
  5
C34
100
AcDbEntity
  8
0
100
AcDbCircle
 10
521.04585
 20
450.291181
 30
0.0
 40
14.19493
  0
CIRCLE
  5
C36
100
AcDbEntity
  8
0
100
AcDbCircle
 10
521.04585
 20
450.291181
 30
0.0
 40
22.19493
  0
CIRCLE
  5
C39
100
AcDbEntity
  8
0
100
AcDbCircle
 10
521.04585
 20
450.291181
 30
0.0
 40
10.734429
  0
LINE
  5
C3A
100
AcDbEntity
  8
0
100
AcDbLine
 10
496.200935
 20
469.736382
 30
0.0
 11
496.200935
 21
428.865718
 31
0.0
  0
LINE
  5
C3C
100
AcDbEntity
  8
0
100
AcDbLine
 10
546.200935
 20
469.736382
 30
0.0
 11
546.200935
 21
428.865718
 31
0.0
  0
LINE
  5
C3D
100
AcDbEntity
  8
0
100
AcDbLine
 10
496.200935
 20
469.736382
 30
0.0
 11
506.64867
 21
469.736382
 31
0.0
  0
LINE
  5
C3E
100
AcDbEntity
  8
0
100
AcDbLine
 10
496.200935
 20
428.865718
 30
0.0
 11
509.805558
 21
428.865718
 31
0.0
  0
LINE
  5
C3F
100
AcDbEntity
  8
0
100
AcDbLine
 10
535.44303
 20
469.736382
 30
0.0
 11
546.200935
 21
469.736382
 31
0.0
  0
LINE
  5
C40
100
AcDbEntity
  8
0
100
AcDbLine
 10
532.286142
 20
428.865718
 30
0.0
 11
546.200935
 21
428.865718
 31
0.0
  0
LINE
  5
C47
100
AcDbEntity
  8
0
100
AcDbLine
 10
348.978696
 20
456.595584
 30
0.0
 11
362.943792
 21
456.595584
 31
0.0
  0
LINE
  5
C48
100
AcDbEntity
  8
0
100
AcDbLine
 10
348.978696
 20
440.38906
 30
0.0
 11
362.925774
 21
440.38906
 31
0.0
  0
LINE
  5
C49
100
AcDbEntity
  8
0
100
AcDbLine
 10
255.892646
 20
458.595584
 30
0.0
 11
295.780395
 21
458.595584
 31
0.0
  0
LINE
  5
C4A
100
AcDbEntity
  8
0
100
AcDbLine
 10
255.892646
 20
438.38906
 30
0.0
 11
295.780395
 21
438.38906
 31
0.0
  0
LWPOLYLINE
  5
C4B
100
AcDbEntity
  8
0
100
AcDbPolyline
 90
        4
 70
     1
 43
0.0
 10
367.721073
 20
458.917359
 10
373.961291
 20
458.917359
 10
373.961291
 20
438.292708
 10
367.721073
 20
438.292708
  0
LINE
  5
C4C
100
AcDbEntity
  8
0
100
AcDbLine
 10
378.92259
 20
456.595584
 30
0.0
 11
393.133289
 21
456.595584
 31
0.0
  0
LINE
  5
C4D
100
AcDbEntity
  8
0
100
AcDbLine
 10
378.940609
 20
440.38906
 30
0.0
 11
393.133289
 21
440.38906
 31
0.0
  0
LINE
  5
C4E
100
AcDbEntity
  8
0
100
AcDbLine
 10
393.133289
 20
438.38906
 30
0.0
 11
496.200935
 21
438.38906
 31
0.0
  0
LINE
  5
C52
100
AcDbEntity
  8
0
100
AcDbLine
 10
336.780395
 20
458.595584
 30
0.0
 11
348.978696
 21
458.595584
 31
0.0
  0
LINE
  5
C57
100
AcDbEntity
  8
0
100
AcDbLine
 10
336.780395
 20
438.38906
 30
0.0
 11
348.978696
 21
438.38906
 31
0.0
  0
LINE
  5
C58
100
AcDbEntity
  8
0
100
AcDbLine
 10
280.892646
 20
438.38906
 30
0.0
 11
280.892646
 21
282.87257
 31
0.0
  0
LINE
  5
C59
100
AcDbEntity
  8
0
100
AcDbLine
 10
546.200935
 20
458.595584
 30
0.0
 11
584.939024
 21
458.595584
 31
0.0
  0
LINE
  5
C5A
100
AcDbEntity
  8
0
100
AcDbLine
 10
546.200935
 20
438.38906
 30
0.0
 11
577.222612
 21
438.38906
 31
0.0
  0
LINE
  5
C5D
100
AcDbEntity
  8
0
100
AcDbLine
 10
496.200935
 20
458.595584
 30
0.0
 11
465.677068
 21
458.595584
 31
0.0
  0
LINE
  5
C5E
100
AcDbEntity
  8
0
100
AcDbLine
 10
393.133289
 20
458.595584
 30
0.0
 11
425.664805
 21
458.595584
 31
0.0
  0
LINE
  5
C5F
100
AcDbEntity
  8
0
100
AcDbLine
 10
630.892646
 20
411.167083
 30
0.0
 11
630.892646
 21
401.516808
 31
0.0
  0
LINE
  5
C60
100
AcDbEntity
  8
0
100
AcDbLine
 10
610.892646
 20
404.719026
 30
0.0
 11
610.892646
 21
401.516808
 31
0.0
  0
LINE
  5
C61
100
AcDbEntity
  8
0
100
AcDbLine
 10
610.892646
 20
352.089943
 30
0.0
 11
610.892646
 21
282.87257
 31
0.0
  0
ARC
  5
C63
100
AcDbEntity
  8
0
100
AcDbCircle
 10
582.284207
 20
409.780621
 30
0.0
 40
29.052754
100
AcDbArc
 50
349.966683
 51
2.735321
  0
LINE
  5
C64
100
AcDbEntity
  8
0
100
AcDbLine
 10
584.939024
 20
460.595584
 30
0.0
 11
584.939024
 21
436.702795
 31
0.0
  0
LINE
  5
C65
100
AcDbEntity
  8
0
100
AcDbLine
 10
609.301409
 20
411.167083
 30
0.0
 11
632.892646
 21
411.167083
 31
0.0
  0
ARC
  5
C66
100
AcDbEntity
  8
0
100
AcDbCircle
 10
589.659454
 20
417.362393
 30
0.0
 40
43.921086
100
AcDbArc
 50
10.393885
 51
79.606115
  0
ARC
  5
C67
100
AcDbEntity
  8
0
100
AcDbCircle
 10
582.284207
 20
409.780621
 30
0.0
 40
27.052754
100
AcDbArc
 50
2.937713
 51
84.368225
  0
LINE
  5
C68
100
AcDbEntity
  8
0
100
AcDbLine
 10
632.892646
 20
424.925551
 30
0.0
 11
632.892646
 21
411.167083
 31
0.0
  0
LINE
  5
C69
100
AcDbEntity
  8
0
100
AcDbLine
 10
584.939024
 20
460.595584
 30
0.0
 11
597.222612
 21
460.595584
 31
0.0
  0
ARC
  5
C6A
100
AcDbEntity
  8
0
100
AcDbCircle
 10
582.284207
 20
409.780621
 30
0.0
 40
29.052754
100
AcDbArc
 50
84.757044
 51
100.033317
  0
CIRCLE
  5
C6B
100
AcDbEntity
  8
0
100
AcDbCircle
 10
620.252241
 20
379.361148
 30
0.0
 40
6.589643
  0
CIRCLE
  5
C6F
100
AcDbEntity
  8
0
100
AcDbCircle
 10
620.252241
 20
379.361148
 30
0.0
 40
9.589643
  0
LWPOLYLINE
  5
C70
100
AcDbEntity
  8
0
100
AcDbPolyline
 90
        6
 70
     0
 43
0.0
 10
533.728395
 20
488.745729
 10
533.728395
 20
475.225659
 10
521.666527
 20
475.225659
 10
521.666527
 20
502.774147
 10
533.728395
 20
502.774147
 10
533.728395
 20
493.745729
  0
LINE
  5
C72
100
AcDbEntity
  8
0
100
AcDbLine
 10
526.950247
 20
493.745729
 30
0.0
 11
555.241598
 21
493.745729
 31
0.0
  0
LINE
  5
C73
100
AcDbEntity
  8
0
100
AcDbLine
 10
526.950247
 20
488.745729
 30
0.0
 11
555.241598
 21
488.745729
 31
0.0
  0
LINE
  5
C74
100
AcDbEntity
  8
0
100
AcDbLine
 10
526.950247
 20
493.745729
 30
0.0
 11
526.950247
 21
488.745729
 31
0.0
  0
ARC
  5
C75
100
AcDbEntity
  8
0
100
AcDbCircle
 10
555.241598
 20
491.245729
 30
0.0
 40
2.5
100
AcDbArc
 50
270.0
 51
90.0
  0
LWPOLYLINE
  5
C76
100
AcDbEntity
  8
0
100
AcDbPolyline
 90
        4
 70
     1
 43
0.0
 10
522.960319
 20
505.411044
 10
532.781595
 20
505.411044
 10
532.781595
 20
503.055774
 10
522.960319
 20
503.055774
  0
LINE
  5
C77
100
AcDbEntity
  8
0
100
AcDbLine
 10
526.299553
 20
505.411044
 30
0.0
 11
526.299553
 21
503.055774
 31
0.0
  0
LINE
  5
C78
100
AcDbEntity
  8
0
100
AcDbLine
 10
530.031638
 20
505.21477
 30
0.0
 11
530.031638
 21
502.8595
 31
0.0
  0
LINE
  5
C79
100
AcDbEntity
  8
0
100
AcDbLine
 10
524.531723
 20
507.57004
 30
0.0
 11
524.531723
 21
505.411044
 31
0.0
  0
LINE
  5
C7A
100
AcDbEntity
  8
0
100
AcDbLine
 10
531.013765
 20
507.57004
 30
0.0
 11
531.013765
 21
505.607312
 31
0.0
  0
MTEXT
  5
C7C
100
AcDbEntity
  8
0
100
AcDbMText
 10
1681.572659
 20
1599.26562
 30
0.0
 40
30.0
 41
0.0
 71
     1
 72
     5
  1
\fMS UI Gothic|b0|i0|c128|p50;１６０\U+2103～２２０\U+2103
  0
LEADER
  5
C7D
100
AcDbEntity
  8
0
100
AcDbLeader
  3
STANDARD_WS
 73
     0
 74
     0
 40
24.659091
 41
147.613636
 76
     2
 10
553.440522
 20
447.139446
 30
0.0
 10
644.950303
 20
469.958218
 30
0.0
 77
   256
340
C7E
  0
MTEXT
  5
C7E
102
{ACAD_REACTORS
330
C7D
102
}
100
AcDbEntity
  8
0
100
AcDbMText
 10
647.05468
 20
484.392141
 30
0.0
 40
20.0
 41
0.0
 71
     4
 72
     1
  1
\A1;\fMS UI Gothic|b0|i0|c128|p50;サーモスタット
  0
LEADER
  5
C8A
100
AcDbEntity
  8
0
100
AcDbLeader
  3
STANDARD_WS
 73
     0
 74
     0
 75
     1
 40
26.477273
 41
172.613636
 76
     3
 10
624.61479
 20
342.154577
 30
0.0
 10
658.153177
 20
299.718694
 30
0.0
 10
666.570685
 20
299.718694
 30
0.0
 77
   256
340
C8B
  0
MTEXT
  5
C8B
102
{ACAD_REACTORS
330
C8A
102
}
100
AcDbEntity
  8
0
100
AcDbMText
 10
668.675062
 20
315.061707
 30
0.0
 40
20.0
 41
0.0
 71
     4
 72
     1
  1
\A1;\fMS UI Gothic|b0|i0|c128|p50;接続口径１５A
  0
LEADER
  5
C98
100
AcDbEntity
  8
0
100
AcDbLeader
  3
STANDARD_WS
 73
     0
 74
     0
 40
27.613636
 41
171.590909
 76
     2
 10
624.033042
 20
362.369676
 30
0.0
 10
676.236585
 20
371.782418
 30
0.0
 77
   256
340
C99
  0
MTEXT
  5
C99
102
{ACAD_REACTORS
330
C98
102
}
100
AcDbEntity
  8
0
100
AcDbMText
 10
678.340963
 20
387.693613
 30
0.0
 40
20.0
 41
0.0
 71
     4
 72
     1
  1
\A1;\fMS UI Gothic|b0|i0|c128|p50;過熱防止装置
  0
LEADER
  5
C9A
100
AcDbEntity
  8
0
100
AcDbLeader
  3
STANDARD_WS
 73
     0
 74
     0
 75
     1
 40
27.272727
 41
204.090909
 76
     3
 10
450.247678
 20
478.136255
 30
0.0
 10
486.792658
 20
516.661096
 30
0.0
 10
495.210166
 20
516.661096
 30
0.0
 77
   256
340
C9B
  0
MTEXT
  5
C9B
102
{ACAD_REACTORS
330
C9A
102
}
100
AcDbEntity
  8
0
100
AcDbMText
 10
497.314544
 20
532.401836
 30
0.0
 40
20.0
 41
0.0
 71
     4
 72
     1
  1
\A1;\fMS UI Gothic|b0|i0|c128|p50;排油バルブ　３２A
  0
LEADER
  5
C9C
100
AcDbEntity
  8
0
100
AcDbLeader
  3
STANDARD_WS
 73
     0
 75
     1
 40
25.568182
 41
99.204545
 76
     3
 10
352.493408
 20
426.010072
 30
0.0
 10
210.006341
 20
381.552518
 30
0.0
 10
201.588832
 20
381.552518
 30
0.0
 77
   256
340
C9D
  0
MTEXT
  5
C9D
102
{ACAD_REACTORS
330
C9C
102
}
100
AcDbEntity
  8
0
100
AcDbMText
 10
199.484455
 20
396.440986
 30
0.0
 40
20.0
 41
0.0
 71
     6
 72
     1
  1
\A1;\fMS UI Gothic|b0|i0|c128|p50;ガスコック
  0
MTEXT
  5
C9F
100
AcDbEntity
  8
0
100
AcDbMText
 10
1841.684212
 20
698.370266
 30
0.0
 40
20.0
 41
0.0
 71
     1
 72
     5
  1
\fMS UI Gothic|b0|i0|c128|p50;熱管
  0
LEADER
  5
CA0
100
AcDbEntity
  8
0
100
AcDbLeader
  3
STANDARD_WS
 73
     0
 75
     1
 40
25.568182
 41
93.522727
 76
     3
 10
1645.78244
 20
608.446634
 30
0.0
 10
1602.007791
 20
563.175811
 30
0.0
 10
1593.590283
 20
563.175811
 30
0.0
 77
   256
340
CA1
  0
MTEXT
  5
CA1
102
{ACAD_REACTORS
330
CA0
102
}
100
AcDbEntity
  8
0
100
AcDbMText
 10
1591.485905
 20
578.064279
 30
0.0
 40
20.0
 41
0.0
 71
     6
 72
     1
  1
\A1;\fMS UI Gothic|b0|i0|c128|p50;バーナー
  0
LEADER
  5
CCE
100
AcDbEntity
  8
0
100
AcDbLeader
  3
STANDARD_WS
 73
     0
 74
     0
 75
     1
 40
66.022727
 41
227.045455
 76
     3
 10
661.22544
 20
1514.420242
 30
0.0
 10
728.939678
 20
1444.125696
 30
0.0
 10
737.357186
 20
1444.125696
 30
0.0
 77
   256
340
CCF
  0
MTEXT
  5
CCF
102
{ACAD_REACTORS
330
CCE
102
}
100
AcDbEntity
  8
0
100
AcDbMText
 10
739.461563
 20
1479.241437
 30
0.0
 40
20.0
 41
0.0
 71
     4
 72
     1
  1
\A1;\fMS UI Gothic|b0|i0|c128|p50;サーモスタット\P過熱防止　センサー
  0
DIMENSION
  5
CDC
100
AcDbEntity
  8
0
  6
DASHED2
100
AcDbDimension
  2
*D18
 10
2121.389366
 20
1059.825471
 30
0.0
 11
1826.389366
 21
1071.929848
 31
0.0
 70
    32
  3
STANDARD_WS
100
AcDbAlignedDimension
 13
1531.389366
 23
857.888974
 33
0.0
 14
2121.389366
 24
959.238487
 34
0.0
100
AcDbRotatedDimension
  0
DIMENSION
  5
D2A
100
AcDbEntity
  8
0
  6
DASHED2
100
AcDbDimension
  2
*D19
 10
1867.721877
 20
842.87257
 30
0.0
 11
1855.6175
 21
782.87257
 31
0.0
 70
    32
  3
STANDARD_WS
100
AcDbAlignedDimension
 13
1868.889366
 23
722.87257
 33
0.0
 14
1868.889366
 24
842.87257
 34
0.0
 50
90.0
100
AcDbRotatedDimension
  0
DIMENSION
  5
D37
100
AcDbEntity
  8
0
  6
DASHED2
100
AcDbDimension
  2
*D20
 10
2031.389366
 20
1025.063814
 30
0.0
 11
2076.389366
 21
1037.168191
 31
0.0
 70
    32
  3
STANDARD_WS
100
AcDbAlignedDimension
 13
2121.389366
 23
959.238487
 33
0.0
 14
2031.389366
 24
962.702979
 34
0.0
100
AcDbRotatedDimension
  0
MTEXT
  5
E14
100
AcDbEntity
  8
0
100
AcDbMText
 10
1473.632293
 20
1499.830871
 30
0.0
 40
30.0
 41
0.0
 71
     1
 72
     5
  1
\fMS UI Gothic|b0|i0|c128|p50;熱　　　量
  0
MTEXT
  5
E15
100
AcDbEntity
  8
0
100
AcDbMText
 10
1681.78269
 20
1502.463636
 30
0.0
 40
30.0
 41
0.0
 71
     1
 72
     5
  1
\fMS UI Gothic|b0|i0|c128|p50;９.８８Kw　（８５００Kcal/h)
  0
LINE
  5
E28
100
AcDbEntity
  8
0
100
AcDbLine
 10
238.392646
 20
1397.293319
 30
0.0
 11
653.392646
 21
1397.293319
 31
0.0
  0
DIMENSION
  5
E42
100
AcDbEntity
  8
0
  6
DASHED2
100
AcDbDimension
  2
*D21
 10
653.392646
 20
1416.356764
 30
0.0
 11
445.892646
 21
1428.461141
 31
0.0
 70
    32
  3
STANDARD_WS
100
AcDbAlignedDimension
 13
238.392646
 23
1392.293319
 33
0.0
 14
653.392646
 24
1392.293319
 34
0.0
100
AcDbRotatedDimension
  0
LINE
  5
E90
100
AcDbEntity
  8
0
  6
HIDDEN2
100
AcDbLine
 10
1657.970733
 20
589.039347
 30
0.0
 11
1657.970733
 21
521.260513
 31
0.0
  0
LINE
  5
E91
100
AcDbEntity
  8
0
  6
HIDDEN2
100
AcDbLine
 10
1697.970733
 20
589.039347
 30
0.0
 11
1697.970733
 21
521.260513
 31
0.0
  0
ARC
  5
E93
100
AcDbEntity
  8
0
  6
HIDDEN2
100
AcDbCircle
 10
1677.970733
 20
521.260513
 30
0.0
 40
20.0
100
AcDbArc
 50
180.0
 51
0.0
  0
LINE
  5
E94
100
AcDbEntity
  8
0
100
AcDbLine
 10
295.780395
 20
460.900646
 30
0.0
 11
295.780395
 21
435.900646
 31
0.0
  0
LINE
  5
E95
100
AcDbEntity
  8
0
100
AcDbLine
 10
307.780395
 20
468.900646
 30
0.0
 11
307.780395
 21
427.900646
 31
0.0
  0
LINE
  5
E96
100
AcDbEntity
  8
0
100
AcDbLine
 10
324.780395
 20
468.900646
 30
0.0
 11
324.780395
 21
427.900646
 31
0.0
  0
LINE
  5
E97
100
AcDbEntity
  8
0
100
AcDbLine
 10
336.780395
 20
460.900646
 30
0.0
 11
336.780395
 21
435.900646
 31
0.0
  0
LINE
  5
E98
100
AcDbEntity
  8
0
100
AcDbLine
 10
307.780395
 20
468.900646
 30
0.0
 11
324.780395
 21
468.900646
 31
0.0
  0
LINE
  5
E99
100
AcDbEntity
  8
0
100
AcDbLine
 10
307.780395
 20
427.900646
 30
0.0
 11
324.780395
 21
427.900646
 31
0.0
  0
LINE
  5
E9C
100
AcDbEntity
  8
0
100
AcDbLine
 10
307.780395
 20
460.900646
 30
0.0
 11
295.780395
 21
460.900646
 31
0.0
  0
LINE
  5
E9D
100
AcDbEntity
  8
0
100
AcDbLine
 10
307.780395
 20
435.900646
 30
0.0
 11
295.780395
 21
435.900646
 31
0.0
  0
LINE
  5
E9E
100
AcDbEntity
  8
0
100
AcDbLine
 10
324.780395
 20
460.900646
 30
0.0
 11
336.780395
 21
460.900646
 31
0.0
  0
LINE
  5
E9F
100
AcDbEntity
  8
0
100
AcDbLine
 10
324.780395
 20
435.900646
 30
0.0
 11
336.780395
 21
435.900646
 31
0.0
  0
LINE
  5
EA5
100
AcDbEntity
  8
0
100
AcDbLine
 10
307.780395
 20
453.400646
 30
0.0
 11
295.780395
 21
453.400646
 31
0.0
  0
LINE
  5
EA6
100
AcDbEntity
  8
0
100
AcDbLine
 10
307.780395
 20
443.400646
 30
0.0
 11
295.780395
 21
443.400646
 31
0.0
  0
LINE
  5
EA7
100
AcDbEntity
  8
0
100
AcDbLine
 10
324.780395
 20
453.400646
 30
0.0
 11
336.780395
 21
453.400646
 31
0.0
  0
LINE
  5
EA8
100
AcDbEntity
  8
0
100
AcDbLine
 10
324.780395
 20
443.400646
 30
0.0
 11
336.780395
 21
443.400646
 31
0.0
  0
LINE
  5
EAA
100
AcDbEntity
  8
0
100
AcDbLine
 10
307.780395
 20
458.400646
 30
0.0
 11
324.780395
 21
458.400646
 31
0.0
  0
LINE
  5
EAB
100
AcDbEntity
  8
0
100
AcDbLine
 10
307.780395
 20
438.400646
 30
0.0
 11
324.780395
 21
438.400646
 31
0.0
  0
CIRCLE
  5
EAF
100
AcDbEntity
  8
0
100
AcDbCircle
 10
445.892646
 20
305.551953
 30
0.0
 40
28.0
  0
CIRCLE
  5
EB0
100
AcDbEntity
  8
0
100
AcDbCircle
 10
445.892646
 20
305.551953
 30
0.0
 40
20.0
  0
CIRCLE
  5
EB3
100
AcDbEntity
  8
0
100
AcDbCircle
 10
445.981869
 20
474.816943
 30
0.0
 40
17.938263
  0
LINE
  5
EB5
100
AcDbEntity
  8
0
  6
HIDDEN2
100
AcDbLine
 10
1676.389366
 20
738.327116
 30
0.0
 11
1736.389366
 21
732.87257
 31
0.0
  0
DIMENSION
  5
EC2
100
AcDbEntity
  8
0
  6
HIDDEN2
100
AcDbDimension
  2
*D22
 10
1739.36121
 20
817.87257
 30
0.0
 11
1739.36121
 21
775.37257
 31
0.0
 70
   160
  3
STANDARD_WS
100
AcDbAlignedDimension
 13
1735.684624
 23
732.87257
 33
0.0
 14
1736.389366
 24
817.87257
 34
0.0
 50
90.0
100
AcDbRotatedDimension
  0
LINE
  5
EFD
100
AcDbEntity
  8
0
  6
HIDDEN2
100
AcDbLine
 10
1531.389366
 20
842.87257
 30
0.0
 11
1676.389366
 21
777.87257
 31
0.0
  0
LINE
  5
EFE
100
AcDbEntity
  8
0
  6
HIDDEN2
100
AcDbLine
 10
1676.389366
 20
777.87257
 30
0.0
 11
1676.389366
 21
738.327116
 31
0.0
  0
DIMENSION
  5
F0C
100
AcDbEntity
  8
0
  6
DASHED2
100
AcDbDimension
  2
*D23
 10
1640.651635
 20
738.327116
 30
0.0
 11
1628.547258
 21
758.099843
 31
0.0
 70
    32
  1
40
  3
STANDARD_WS
100
AcDbAlignedDimension
 13
1662.784322
 23
777.87257
 33
0.0
 14
1669.700789
 24
738.327116
 34
0.0
 50
90.0
100
AcDbRotatedDimension
  0
DIMENSION
  5
F45
100
AcDbEntity
  8
0
  6
DASHED2
100
AcDbDimension
  2
*D24
 10
1676.389366
 20
923.506579
 30
0.0
 11
1603.889366
 21
935.610956
 31
0.0
 70
    32
  3
STANDARD_WS
100
AcDbAlignedDimension
 13
1531.389366
 23
858.133874
 33
0.0
 14
1676.389366
 24
796.811751
 34
0.0
100
AcDbRotatedDimension
  0
DIMENSION
  5
F51
100
AcDbEntity
  8
0
  6
DASHED2
100
AcDbDimension
  2
*D25
 10
2001.389366
 20
923.506579
 30
0.0
 11
1838.889366
 21
935.610956
 31
0.0
 70
    32
  3
STANDARD_WS
100
AcDbAlignedDimension
 13
1676.389366
 23
796.811751
 33
0.0
 14
2001.389366
 24
848.939638
 34
0.0
100
AcDbRotatedDimension
1001
ACAD
1000
DSTYLE
1002
{
1070
    75
1070
     1
1070
   287
1070
     4
1002
}
  0
DIMENSION
  5
F6D
100
AcDbEntity
  8
0
  6
DASHED2
100
AcDbDimension
  2
*D26
 10
2001.389366
 20
934.534674
 30
0.0
 11
1975.867481
 21
946.639051
 31
0.0
 70
    32
  3
STANDARD_WS
100
AcDbAlignedDimension
 13
2031.389366
 23
858.17941
 33
0.0
 14
2001.389366
 24
848.939638
 34
0.0
100
AcDbRotatedDimension
  0
LINE
  5
FD7
100
AcDbEntity
  8
0
100
AcDbLine
 10
238.392646
 20
1397.293319
 30
0.0
 11
205.892646
 21
1252.293319
 31
0.0
  0
LINE
  5
FD8
100
AcDbEntity
  8
0
100
AcDbLine
 10
653.392646
 20
1397.293319
 30
0.0
 11
685.892646
 21
1252.293319
 31
0.0
  0
DIMENSION
  5
FE5
100
AcDbEntity
  8
0
  6
DASHED2
100
AcDbDimension
  2
*D27
 10
151.363902
 20
1397.293319
 30
0.0
 11
139.259525
 21
1559.793319
 31
0.0
 70
    32
  3
STANDARD_WS
100
AcDbAlignedDimension
 13
224.110425
 23
1722.293319
 33
0.0
 14
221.763768
 24
1397.293319
 34
0.0
 50
90.0
100
AcDbRotatedDimension
  0
LINE
  5
100E
100
AcDbEntity
  8
0
100
AcDbLine
 10
255.892646
 20
85.87257
 30
0.0
 11
635.892646
 21
85.87257
 31
0.0
  0
ENDSEC
  0
SECTION
  2
OBJECTS
  0
DICTIONARY
  5
C
100
AcDbDictionary
  3
ACAD_GROUP
350
D
  3
ACAD_MLINESTYLE
350
1B
  3
ACDBVARIABLEDICTIONARY
350
33
  3
CONTENTDICTIONARY
350
23
  0
DICTIONARY
  5
D
102
{ACAD_REACTORS
330
C
102
}
100
AcDbDictionary
  0
DICTIONARY
  5
1B
102
{ACAD_REACTORS
330
C
102
}
100
AcDbDictionary
  3
STANDARD
350
1C
  0
DICTIONARY
  5
33
102
{ACAD_REACTORS
330
C
102
}
100
AcDbDictionary
  3
DIMADEC
350
34
  0
DICTIONARY
  5
23
102
{ACAD_REACTORS
330
C
102
}
100
AcDbDictionary
  0
MLINESTYLE
  5
1C
102
{ACAD_REACTORS
330
1B
102
}
100
AcDbMlineStyle
  2
STANDARD
 70
     0
  3

 62
   256
 51
90.0
 52
90.0
 71
     2
 49
0.5
 62
   256
  6
BYLAYER
 49
-0.5
 62
   256
  6
BYLAYER
  0
DICTIONARYVAR
  5
34
102
{ACAD_REACTORS
330
33
102
}
100
DictionaryVariables
280
     0
  1
0
  0
ENDSEC
  0
EOF
