  0
SECTION
  2
HEADER
  9
$ACADVER
  1
AC1014
  9
$ACADMAINTVER
 70
     0
  9
$DWGCODEPAGE
  3
ANSI_932
  9
$INSBASE
 10
0.0
 20
0.0
 30
0.0
  9
$EXTMIN
 10
-473.980063
 20
-271.990411
 30
0.0
  9
$EXTMAX
 10
2716.199534
 20
2100.803126
 30
0.0
  9
$LIMMIN
 10
0.0
 20
0.0
  9
$LIMMAX
 10
2000.0
 20
1000.0
  9
$ORTHOMODE
 70
     1
  9
$REGENMODE
 70
     1
  9
$FILLMODE
 70
     1
  9
$QTEXTMODE
 70
     0
  9
$MIRRTEXT
 70
     1
  9
$DRAGMODE
 70
     2
  9
$LTSCALE
 40
3.367003
  9
$OSMODE
 70
     0
  9
$ATTMODE
 70
     1
  9
$TEXTSIZE
 40
20.0
  9
$TRACEWID
 40
1.0
  9
$TEXTSTYLE
  7
STANDARD
  9
$CLAYER
  8
0
  9
$CELTYPE
  6
BYLAYER
  9
$CECOLOR
 62
   256
  9
$CELTSCALE
 40
1.0
  9
$DELOBJ
 70
     1
  9
$DISPSILH
 70
     0
  9
$DIMSCALE
 40
3.367003
  9
$DIMASZ
 40
2.5
  9
$DIMEXO
 40
0.625
  9
$DIMDLI
 40
3.75
  9
$DIMRND
 40
0.0
  9
$DIMDLE
 40
0.0
  9
$DIMEXE
 40
1.25
  9
$DIMTP
 40
0.0
  9
$DIMTM
 40
0.0
  9
$DIMTXT
 40
2.5
  9
$DIMCEN
 40
2.5
  9
$DIMTSZ
 40
0.0
  9
$DIMTOL
 70
     0
  9
$DIMLIM
 70
     0
  9
$DIMTIH
 70
     0
  9
$DIMTOH
 70
     0
  9
$DIMSE1
 70
     0
  9
$DIMSE2
 70
     0
  9
$DIMTAD
 70
     1
  9
$DIMZIN
 70
     8
  9
$DIMBLK
  1

  9
$DIMASO
 70
     1
  9
$DIMSHO
 70
     1
  9
$DIMPOST
  1

  9
$DIMAPOST
  1

  9
$DIMALT
 70
     0
  9
$DIMALTD
 70
     4
  9
$DIMALTF
 40
0.0394
  9
$DIMLFAC
 40
1.0
  9
$DIMTOFL
 70
     1
  9
$DIMTVP
 40
0.0
  9
$DIMTIX
 70
     0
  9
$DIMSOXD
 70
     0
  9
$DIMSAH
 70
     0
  9
$DIMBLK1
  1

  9
$DIMBLK2
  1

  9
$DIMSTYLE
  2
STANDARD_WS
  9
$DIMCLRD
 70
     0
  9
$DIMCLRE
 70
     0
  9
$DIMCLRT
 70
     0
  9
$DIMTFAC
 40
1.0
  9
$DIMGAP
 40
0.625
  9
$DIMJUST
 70
     0
  9
$DIMSD1
 70
     0
  9
$DIMSD2
 70
     0
  9
$DIMTOLJ
 70
     1
  9
$DIMTZIN
 70
     0
  9
$DIMALTZ
 70
     0
  9
$DIMALTTZ
 70
     0
  9
$DIMFIT
 70
     3
  9
$DIMUPT
 70
     0
  9
$DIMUNIT
 70
     2
  9
$DIMDEC
 70
     4
  9
$DIMTDEC
 70
     4
  9
$DIMALTU
 70
     8
  9
$DIMALTTD
 70
     4
  9
$DIMTXSTY
  7
STANDARD
  9
$DIMAUNIT
 70
     0
  9
$LUNITS
 70
     2
  9
$LUPREC
 70
     4
  9
$SKETCHINC
 40
1.0
  9
$FILLETRAD
 40
33.670034
  9
$AUNITS
 70
     0
  9
$AUPREC
 70
     0
  9
$MENU
  1
acad
  9
$ELEVATION
 40
0.0
  9
$PELEVATION
 40
0.0
  9
$THICKNESS
 40
0.0
  9
$LIMCHECK
 70
     0
  9
$BLIPMODE
 70
     0
  9
$CHAMFERA
 40
33.670034
  9
$CHAMFERB
 40
33.670034
  9
$CHAMFERC
 40
67.340067
  9
$CHAMFERD
 40
0.0
  9
$SKPOLY
 70
     0
  9
$TDCREATE
 40
2452618.701731597
  9
$TDUPDATE
 40
2453775.611886458
  9
$TDINDWG
 40
0.1780457176
  9
$TDUSRTIMER
 40
0.1780457176
  9
$USRTIMER
 70
     1
  9
$ANGBASE
 50
0.0
  9
$ANGDIR
 70
     0
  9
$PDMODE
 70
     0
  9
$PDSIZE
 40
0.0
  9
$PLINEWID
 40
0.0
  9
$COORDS
 70
     1
  9
$SPLFRAME
 70
     0
  9
$SPLINETYPE
 70
     6
  9
$SPLINESEGS
 70
     8
  9
$ATTDIA
 70
     0
  9
$ATTREQ
 70
     1
  9
$HANDLING
 70
     1
  9
$HANDSEED
  5
957
  9
$SURFTAB1
 70
     6
  9
$SURFTAB2
 70
     6
  9
$SURFTYPE
 70
     6
  9
$SURFU
 70
     6
  9
$SURFV
 70
     6
  9
$UCSNAME
  2

  9
$UCSORG
 10
0.0
 20
0.0
 30
0.0
  9
$UCSXDIR
 10
1.0
 20
0.0
 30
0.0
  9
$UCSYDIR
 10
0.0
 20
1.0
 30
0.0
  9
$PUCSNAME
  2

  9
$PUCSORG
 10
0.0
 20
0.0
 30
0.0
  9
$PUCSXDIR
 10
1.0
 20
0.0
 30
0.0
  9
$PUCSYDIR
 10
0.0
 20
1.0
 30
0.0
  9
$USERI1
 70
     0
  9
$USERI2
 70
     0
  9
$USERI3
 70
     0
  9
$USERI4
 70
     0
  9
$USERI5
 70
     0
  9
$USERR1
 40
0.0
  9
$USERR2
 40
0.0
  9
$USERR3
 40
0.0
  9
$USERR4
 40
0.0
  9
$USERR5
 40
0.0
  9
$WORLDVIEW
 70
     1
  9
$SHADEDGE
 70
     3
  9
$SHADEDIF
 70
    70
  9
$TILEMODE
 70
     1
  9
$MAXACTVP
 70
    48
  9
$PINSBASE
 10
0.0
 20
0.0
 30
0.0
  9
$PLIMCHECK
 70
     0
  9
$PEXTMIN
 10
1.000000E+20
 20
1.000000E+20
 30
1.000000E+20
  9
$PEXTMAX
 10
-1.000000E+20
 20
-1.000000E+20
 30
-1.000000E+20
  9
$PLIMMIN
 10
0.0
 20
0.0
  9
$PLIMMAX
 10
420.0
 20
297.0
  9
$UNITMODE
 70
     0
  9
$VISRETAIN
 70
     1
  9
$PLINEGEN
 70
     0
  9
$PSLTSCALE
 70
     1
  9
$TREEDEPTH
 70
  3020
  9
$PICKSTYLE
 70
     1
  9
$CMLSTYLE
  2
STANDARD
  9
$CMLJUST
 70
     0
  9
$CMLSCALE
 40
20.0
  9
$PROXYGRAPHICS
 70
     1
  9
$MEASUREMENT
 70
     1
  0
ENDSEC
  0
SECTION
  2
CLASSES
  0
CLASS
  1
DICTIONARYVAR
  2
AcDbDictionaryVar
  3
"AutoCAD"
 90
        0
280
     0
281
     0
  0
CLASS
  1
LWPOLYLINE
  2
AcDbPolyline
  3
"AutoCAD"
 90
        0
280
     0
281
     1
  0
ENDSEC
  0
SECTION
  2
TABLES
  0
TABLE
  2
VPORT
  5
8
100
AcDbSymbolTable
 70
     1
  0
VPORT
  5
951
100
AcDbSymbolTableRecord
100
AcDbViewportTableRecord
  2
*ACTIVE
 70
     0
 10
0.0
 20
0.0
 11
1.0
 21
1.0
 12
1645.205962
 22
36.743008
 13
0.0
 23
0.0
 14
34.0
 24
34.0
 15
34.0
 25
34.0
 16
0.0
 26
0.0
 36
1.0
 17
0.0
 27
0.0
 37
0.0
 40
1055.942095
 41
1.681818
 42
50.0
 43
0.0
 44
0.0
 50
0.0
 51
0.0
 71
     0
 72
   100
 73
     1
 74
     1
 75
     0
 76
     1
 77
     0
 78
     0
  0
ENDTAB
  0
TABLE
  2
LTYPE
  5
5
100
AcDbSymbolTable
 70
     4
  0
LTYPE
  5
12
100
AcDbSymbolTableRecord
100
AcDbLinetypeTableRecord
  2
BYBLOCK
 70
     0
  3

 72
    65
 73
     0
 40
0.0
  0
LTYPE
  5
13
100
AcDbSymbolTableRecord
100
AcDbLinetypeTableRecord
  2
BYLAYER
 70
     0
  3

 72
    65
 73
     0
 40
0.0
  0
LTYPE
  5
14
100
AcDbSymbolTableRecord
100
AcDbLinetypeTableRecord
  2
CONTINUOUS
 70
     0
  3
Solid line
 72
    65
 73
     0
 40
0.0
  0
LTYPE
  5
38
100
AcDbSymbolTableRecord
100
AcDbLinetypeTableRecord
  2
CENTER2
 70
     0
  3
Center (.5x) ___ _ ___ _ ___ _ ___ _ ___ _ ___
 72
    65
 73
     4
 40
28.575
 49
19.05
 74
     0
 49
-3.175
 74
     0
 49
3.175
 74
     0
 49
-3.175
 74
     0
  0
LTYPE
  5
39
100
AcDbSymbolTableRecord
100
AcDbLinetypeTableRecord
  2
DASHED2
 70
     0
  3
Dashed (.5x) _ _ _ _ _ _ _ _ _ _ _ _ _ _ _ _ _
 72
    65
 73
     2
 40
9.525
 49
6.35
 74
     0
 49
-3.175
 74
     0
  0
LTYPE
  5
3A
100
AcDbSymbolTableRecord
100
AcDbLinetypeTableRecord
  2
HIDDEN2
 70
     0
  3
Hidden (.5x) _ _ _ _ _ _ _ _ _ _ _ _ _ _ _ _ _
 72
    65
 73
     2
 40
4.7625
 49
3.175
 74
     0
 49
-1.5875
 74
     0
  0
ENDTAB
  0
TABLE
  2
LAYER
  5
2
100
AcDbSymbolTable
 70
     2
  0
LAYER
  5
E
100
AcDbSymbolTableRecord
100
AcDbLayerTableRecord
  2
0
 70
     0
 62
     7
  6
CONTINUOUS
  0
LAYER
  5
13E
100
AcDbSymbolTableRecord
100
AcDbLayerTableRecord
  2
DEFPOINTS
 70
     0
 62
     7
  6
CONTINUOUS
  0
ENDTAB
  0
TABLE
  2
STYLE
  5
3
100
AcDbSymbolTable
 70
     2
  0
STYLE
  5
F
100
AcDbSymbolTableRecord
100
AcDbTextStyleTableRecord
  2
STANDARD
 70
     0
 40
20.0
 41
1.0
 50
0.0
 71
     0
 42
20.0
  3
txt.shx
  4

  0
STYLE
  5
37
100
AcDbSymbolTableRecord
100
AcDbTextStyleTableRecord
  2

 70
     1
 40
0.0
 41
1.0
 50
0.0
 71
     0
 42
8.417508
  3
ltypeshp.shx
  4

  0
ENDTAB
  0
TABLE
  2
VIEW
  5
6
100
AcDbSymbolTable
 70
     0
  0
ENDTAB
  0
TABLE
  2
UCS
  5
7
100
AcDbSymbolTable
 70
     0
  0
ENDTAB
  0
TABLE
  2
APPID
  5
9
100
AcDbSymbolTable
 70
     3
  0
APPID
  5
10
100
AcDbSymbolTableRecord
100
AcDbRegAppTableRecord
  2
ACAD
 70
     0
  0
APPID
  5
24
100
AcDbSymbolTableRecord
100
AcDbRegAppTableRecord
  2
CONTENTTABDATA
 70
     0
  0
APPID
  5
25
100
AcDbSymbolTableRecord
100
AcDbRegAppTableRecord
  2
CONTENTCURRENTTAB
 70
     0
  0
ENDTAB
  0
TABLE
  2
DIMSTYLE
  5
A
100
AcDbSymbolTable
 70
     2
  0
DIMSTYLE
105
1D
100
AcDbSymbolTableRecord
100
AcDbDimStyleTableRecord
  2
STANDARD
 70
     0
  3

  4

  5

  6

  7

 40
1.0
 41
0.18
 42
0.0625
 43
0.38
 44
0.18
 45
0.0
 46
0.0
 47
0.0
 48
0.0
140
0.18
141
0.09
142
0.0
143
25.4
144
1.0
145
0.0
146
1.0
147
0.09
 71
     0
 72
     0
 73
     1
 74
     1
 75
     0
 76
     0
 77
     0
 78
     0
170
     0
171
     2
172
     0
173
     0
174
     0
175
     0
176
     0
177
     0
178
     0
270
     2
271
     4
272
     4
273
     2
274
     2
340
F
275
     0
280
     0
281
     0
282
     0
283
     1
284
     0
285
     0
286
     0
287
     3
288
     0
  0
DIMSTYLE
105
35
102
{ACAD_REACTORS
330
554
330
5B1
330
5DF
330
5EB
330
5F7
330
642
330
68F
330
69B
330
6A7
330
71F
330
786
330
792
330
79E
330
7E9
330
897
330
8E6
330
916
102
}
100
AcDbSymbolTableRecord
100
AcDbDimStyleTableRecord
  2
STANDARD_WS
 70
     0
  3

  4

  5

  6

  7

 40
3.367003
 41
2.5
 42
0.625
 43
3.75
 44
1.25
 45
0.0
 46
0.0
 47
0.0
 48
0.0
140
2.5
141
2.5
142
0.0
143
0.0394
144
1.0
145
0.0
146
1.0
147
0.625
 71
     0
 72
     0
 73
     0
 74
     0
 75
     0
 76
     0
 77
     1
 78
     8
170
     0
171
     4
172
     1
173
     0
174
     0
175
     0
176
     0
177
     0
178
     0
270
     2
271
     4
272
     4
273
     8
274
     4
340
F
275
     0
280
     0
281
     0
282
     0
283
     1
284
     0
285
     0
286
     0
287
     3
288
     0
  0
ENDTAB
  0
TABLE
  2
BLOCK_RECORD
  5
1
100
AcDbSymbolTable
 70
    20
  0
BLOCK_RECORD
  5
18
100
AcDbSymbolTableRecord
100
AcDbBlockTableRecord
  2
*MODEL_SPACE
  0
BLOCK_RECORD
  5
15
100
AcDbSymbolTableRecord
100
AcDbBlockTableRecord
  2
*PAPER_SPACE
  0
BLOCK_RECORD
  5
114
100
AcDbSymbolTableRecord
100
AcDbBlockTableRecord
  2
A$C731C1FEF
  0
BLOCK_RECORD
  5
17A
100
AcDbSymbolTableRecord
100
AcDbBlockTableRecord
  2
A$C3D4A0DE5
  0
BLOCK_RECORD
  5
1AD
100
AcDbSymbolTableRecord
100
AcDbBlockTableRecord
  2
A$C061D45EC
  0
BLOCK_RECORD
  5
548
100
AcDbSymbolTableRecord
100
AcDbBlockTableRecord
  2
*D3
  0
BLOCK_RECORD
  5
5A5
100
AcDbSymbolTableRecord
100
AcDbBlockTableRecord
  2
*D4
  0
BLOCK_RECORD
  5
5D3
100
AcDbSymbolTableRecord
100
AcDbBlockTableRecord
  2
*D5
  0
BLOCK_RECORD
  5
5E0
100
AcDbSymbolTableRecord
100
AcDbBlockTableRecord
  2
*D6
  0
BLOCK_RECORD
  5
5EC
100
AcDbSymbolTableRecord
100
AcDbBlockTableRecord
  2
*D7
  0
BLOCK_RECORD
  5
636
100
AcDbSymbolTableRecord
100
AcDbBlockTableRecord
  2
*D8
  0
BLOCK_RECORD
  5
683
100
AcDbSymbolTableRecord
100
AcDbBlockTableRecord
  2
*D9
  0
BLOCK_RECORD
  5
690
100
AcDbSymbolTableRecord
100
AcDbBlockTableRecord
  2
*D10
  0
BLOCK_RECORD
  5
69C
100
AcDbSymbolTableRecord
100
AcDbBlockTableRecord
  2
*D11
  0
BLOCK_RECORD
  5
713
100
AcDbSymbolTableRecord
100
AcDbBlockTableRecord
  2
*D12
  0
BLOCK_RECORD
  5
77A
100
AcDbSymbolTableRecord
100
AcDbBlockTableRecord
  2
*D13
  0
BLOCK_RECORD
  5
787
100
AcDbSymbolTableRecord
100
AcDbBlockTableRecord
  2
*D14
  0
BLOCK_RECORD
  5
793
100
AcDbSymbolTableRecord
100
AcDbBlockTableRecord
  2
*D15
  0
BLOCK_RECORD
  5
7DD
100
AcDbSymbolTableRecord
100
AcDbBlockTableRecord
  2
*D16
  0
BLOCK_RECORD
  5
88B
100
AcDbSymbolTableRecord
100
AcDbBlockTableRecord
  2
*D17
  0
BLOCK_RECORD
  5
8DA
100
AcDbSymbolTableRecord
100
AcDbBlockTableRecord
  2
*D18
  0
BLOCK_RECORD
  5
90A
100
AcDbSymbolTableRecord
100
AcDbBlockTableRecord
  2
*D19
  0
ENDTAB
  0
ENDSEC
  0
SECTION
  2
BLOCKS
  0
BLOCK
  5
19
100
AcDbEntity
  8
0
100
AcDbBlockBegin
  2
*MODEL_SPACE
 70
     0
 10
0.0
 20
0.0
 30
0.0
  3
*MODEL_SPACE
  1

  0
ENDBLK
  5
1A
100
AcDbEntity
  8
0
100
AcDbBlockEnd
  0
BLOCK
  5
16
100
AcDbEntity
 67
     1
  8
0
100
AcDbBlockBegin
  2
*PAPER_SPACE
 70
     0
 10
0.0
 20
0.0
 30
0.0
  3
*PAPER_SPACE
  1

  0
ENDBLK
  5
17
100
AcDbEntity
 67
     1
  8
0
100
AcDbBlockEnd
  0
BLOCK
  5
132
100
AcDbEntity
  8
0
100
AcDbBlockBegin
  2
A$C731C1FEF
 70
     0
 10
0.0
 20
0.0
 30
0.0
  3
A$C731C1FEF
  1

  0
LINE
  5
115
100
AcDbEntity
  8
0
100
AcDbLine
 10
0.0
 20
66.0
 30
0.0
 11
52.5
 21
66.0
 31
0.0
  0
LINE
  5
116
100
AcDbEntity
  8
0
100
AcDbLine
 10
0.0
 20
62.0
 30
0.0
 11
52.5
 21
62.0
 31
0.0
  0
LINE
  5
117
100
AcDbEntity
  8
0
100
AcDbLine
 10
0.0
 20
66.0
 30
0.0
 11
0.0
 21
62.0
 31
0.0
  0
LINE
  5
118
100
AcDbEntity
  8
0
100
AcDbLine
 10
90.0
 20
48.0
 30
0.0
 11
90.0
 21
0.0
 31
0.0
  0
LINE
  5
119
100
AcDbEntity
  8
0
100
AcDbLine
 10
115.5
 20
48.0
 30
0.0
 11
115.5
 21
0.0
 31
0.0
  0
LINE
  5
11A
100
AcDbEntity
  8
0
100
AcDbLine
 10
64.5
 20
48.0
 30
0.0
 11
64.5
 21
0.0
 31
0.0
  0
LINE
  5
11B
100
AcDbEntity
  8
0
100
AcDbLine
 10
52.5
 20
48.0
 30
0.0
 11
52.5
 21
0.0
 31
0.0
  0
LINE
  5
11C
100
AcDbEntity
  8
0
100
AcDbLine
 10
127.5
 20
48.0
 30
0.0
 11
127.5
 21
0.0
 31
0.0
  0
LINE
  5
11D
100
AcDbEntity
  8
0
100
AcDbLine
 10
64.5
 20
2.0
 30
0.0
 11
90.0
 21
0.0
 31
0.0
  0
LINE
  5
11E
100
AcDbEntity
  8
0
100
AcDbLine
 10
52.5
 20
0.0
 30
0.0
 11
64.5
 21
0.0
 31
0.0
  0
LINE
  5
11F
100
AcDbEntity
  8
0
100
AcDbLine
 10
52.5
 20
12.0
 30
0.0
 11
64.5
 21
12.0
 31
0.0
  0
LINE
  5
120
100
AcDbEntity
  8
0
100
AcDbLine
 10
85.0
 20
0.392157
 30
0.0
 11
85.0
 21
0.0
 31
0.0
  0
LINE
  5
121
100
AcDbEntity
  8
0
100
AcDbLine
 10
90.0
 20
0.0
 30
0.0
 11
115.5
 21
2.0
 31
0.0
  0
LINE
  5
122
100
AcDbEntity
  8
0
100
AcDbLine
 10
95.0
 20
0.392157
 30
0.0
 11
95.0
 21
0.0
 31
0.0
  0
LINE
  5
123
100
AcDbEntity
  8
0
100
AcDbLine
 10
115.5
 20
0.0
 30
0.0
 11
127.5
 21
0.0
 31
0.0
  0
LINE
  5
124
100
AcDbEntity
  8
0
100
AcDbLine
 10
115.5
 20
12.0
 30
0.0
 11
127.5
 21
12.0
 31
0.0
  0
LINE
  5
125
100
AcDbEntity
  8
0
100
AcDbLine
 10
95.0
 20
62.0
 30
0.0
 11
95.0
 21
47.607843
 31
0.0
  0
LINE
  5
126
100
AcDbEntity
  8
0
100
AcDbLine
 10
85.0
 20
62.0
 30
0.0
 11
85.0
 21
47.607843
 31
0.0
  0
LINE
  5
127
100
AcDbEntity
  8
0
100
AcDbLine
 10
64.5
 20
46.0
 30
0.0
 11
90.0
 21
48.0
 31
0.0
  0
LINE
  5
128
100
AcDbEntity
  8
0
100
AcDbLine
 10
52.5
 20
36.0
 30
0.0
 11
64.5
 21
36.0
 31
0.0
  0
LINE
  5
129
100
AcDbEntity
  8
0
100
AcDbLine
 10
52.5
 20
48.0
 30
0.0
 11
64.5
 21
48.0
 31
0.0
  0
LINE
  5
12A
100
AcDbEntity
  8
0
100
AcDbLine
 10
90.0
 20
48.0
 30
0.0
 11
115.5
 21
46.0
 31
0.0
  0
LINE
  5
12B
100
AcDbEntity
  8
0
100
AcDbLine
 10
115.5
 20
36.0
 30
0.0
 11
127.5
 21
36.0
 31
0.0
  0
LINE
  5
12C
100
AcDbEntity
  8
0
100
AcDbLine
 10
115.5
 20
48.0
 30
0.0
 11
127.5
 21
48.0
 31
0.0
  0
LINE
  5
12D
100
AcDbEntity
  8
0
100
AcDbLine
 10
64.5
 20
62.0
 30
0.0
 11
95.0
 21
62.0
 31
0.0
  0
LINE
  5
12E
100
AcDbEntity
  8
0
100
AcDbLine
 10
64.5
 20
58.0
 30
0.0
 11
95.0
 21
58.0
 31
0.0
  0
LINE
  5
12F
100
AcDbEntity
  8
0
100
AcDbLine
 10
52.5
 20
66.0
 30
0.0
 11
64.5
 21
62.0
 31
0.0
  0
LINE
  5
130
100
AcDbEntity
  8
0
100
AcDbLine
 10
52.5
 20
62.0
 30
0.0
 11
64.5
 21
58.0
 31
0.0
  0
LINE
  5
131
100
AcDbEntity
  8
0
100
AcDbLine
 10
90.0
 20
62.0
 30
0.0
 11
90.0
 21
58.0
 31
0.0
  0
ENDBLK
  5
133
100
AcDbEntity
  8
0
100
AcDbBlockEnd
  0
BLOCK
  5
198
100
AcDbEntity
  8
0
100
AcDbBlockBegin
  2
A$C3D4A0DE5
 70
     0
 10
0.0
 20
0.0
 30
0.0
  3
A$C3D4A0DE5
  1

  0
LINE
  5
17B
100
AcDbEntity
  8
0
  6
HIDDEN2
100
AcDbLine
 10
0.0
 20
66.0
 30
0.0
 11
52.5
 21
66.0
 31
0.0
  0
LINE
  5
17C
100
AcDbEntity
  8
0
  6
HIDDEN2
100
AcDbLine
 10
0.0
 20
62.0
 30
0.0
 11
52.5
 21
62.0
 31
0.0
  0
LINE
  5
17D
100
AcDbEntity
  8
0
  6
HIDDEN2
100
AcDbLine
 10
0.0
 20
66.0
 30
0.0
 11
0.0
 21
62.0
 31
0.0
  0
LINE
  5
17E
100
AcDbEntity
  8
0
  6
HIDDEN2
100
AcDbLine
 10
90.0
 20
48.0
 30
0.0
 11
90.0
 21
0.0
 31
0.0
  0
LINE
  5
17F
100
AcDbEntity
  8
0
  6
HIDDEN2
100
AcDbLine
 10
115.5
 20
48.0
 30
0.0
 11
115.5
 21
0.0
 31
0.0
  0
LINE
  5
180
100
AcDbEntity
  8
0
  6
HIDDEN2
100
AcDbLine
 10
64.5
 20
48.0
 30
0.0
 11
64.5
 21
0.0
 31
0.0
  0
LINE
  5
181
100
AcDbEntity
  8
0
  6
HIDDEN2
100
AcDbLine
 10
52.5
 20
48.0
 30
0.0
 11
52.5
 21
0.0
 31
0.0
  0
LINE
  5
182
100
AcDbEntity
  8
0
  6
HIDDEN2
100
AcDbLine
 10
127.5
 20
48.0
 30
0.0
 11
127.5
 21
0.0
 31
0.0
  0
LINE
  5
183
100
AcDbEntity
  8
0
  6
HIDDEN2
100
AcDbLine
 10
64.5
 20
2.0
 30
0.0
 11
90.0
 21
0.0
 31
0.0
  0
LINE
  5
184
100
AcDbEntity
  8
0
  6
HIDDEN2
100
AcDbLine
 10
52.5
 20
0.0
 30
0.0
 11
64.5
 21
0.0
 31
0.0
  0
LINE
  5
185
100
AcDbEntity
  8
0
  6
HIDDEN2
100
AcDbLine
 10
52.5
 20
12.0
 30
0.0
 11
64.5
 21
12.0
 31
0.0
  0
LINE
  5
186
100
AcDbEntity
  8
0
  6
HIDDEN2
100
AcDbLine
 10
85.0
 20
0.392157
 30
0.0
 11
85.0
 21
0.0
 31
0.0
  0
LINE
  5
187
100
AcDbEntity
  8
0
  6
HIDDEN2
100
AcDbLine
 10
90.0
 20
0.0
 30
0.0
 11
115.5
 21
2.0
 31
0.0
  0
LINE
  5
188
100
AcDbEntity
  8
0
  6
HIDDEN2
100
AcDbLine
 10
95.0
 20
0.392157
 30
0.0
 11
95.0
 21
0.0
 31
0.0
  0
LINE
  5
189
100
AcDbEntity
  8
0
  6
HIDDEN2
100
AcDbLine
 10
115.5
 20
0.0
 30
0.0
 11
127.5
 21
0.0
 31
0.0
  0
LINE
  5
18A
100
AcDbEntity
  8
0
  6
HIDDEN2
100
AcDbLine
 10
115.5
 20
12.0
 30
0.0
 11
127.5
 21
12.0
 31
0.0
  0
LINE
  5
18B
100
AcDbEntity
  8
0
  6
HIDDEN2
100
AcDbLine
 10
95.0
 20
62.0
 30
0.0
 11
95.0
 21
47.607843
 31
0.0
  0
LINE
  5
18C
100
AcDbEntity
  8
0
  6
HIDDEN2
100
AcDbLine
 10
85.0
 20
62.0
 30
0.0
 11
85.0
 21
47.607843
 31
0.0
  0
LINE
  5
18D
100
AcDbEntity
  8
0
  6
HIDDEN2
100
AcDbLine
 10
64.5
 20
46.0
 30
0.0
 11
90.0
 21
48.0
 31
0.0
  0
LINE
  5
18E
100
AcDbEntity
  8
0
  6
HIDDEN2
100
AcDbLine
 10
52.5
 20
36.0
 30
0.0
 11
64.5
 21
36.0
 31
0.0
  0
LINE
  5
18F
100
AcDbEntity
  8
0
  6
HIDDEN2
100
AcDbLine
 10
52.5
 20
48.0
 30
0.0
 11
64.5
 21
48.0
 31
0.0
  0
LINE
  5
190
100
AcDbEntity
  8
0
  6
HIDDEN2
100
AcDbLine
 10
90.0
 20
48.0
 30
0.0
 11
115.5
 21
46.0
 31
0.0
  0
LINE
  5
191
100
AcDbEntity
  8
0
  6
HIDDEN2
100
AcDbLine
 10
115.5
 20
36.0
 30
0.0
 11
127.5
 21
36.0
 31
0.0
  0
LINE
  5
192
100
AcDbEntity
  8
0
  6
HIDDEN2
100
AcDbLine
 10
115.5
 20
48.0
 30
0.0
 11
127.5
 21
48.0
 31
0.0
  0
LINE
  5
193
100
AcDbEntity
  8
0
  6
HIDDEN2
100
AcDbLine
 10
64.5
 20
62.0
 30
0.0
 11
95.0
 21
62.0
 31
0.0
  0
LINE
  5
194
100
AcDbEntity
  8
0
  6
HIDDEN2
100
AcDbLine
 10
64.5
 20
58.0
 30
0.0
 11
95.0
 21
58.0
 31
0.0
  0
LINE
  5
195
100
AcDbEntity
  8
0
  6
HIDDEN2
100
AcDbLine
 10
52.5
 20
66.0
 30
0.0
 11
64.5
 21
62.0
 31
0.0
  0
LINE
  5
196
100
AcDbEntity
  8
0
  6
HIDDEN2
100
AcDbLine
 10
52.5
 20
62.0
 30
0.0
 11
64.5
 21
58.0
 31
0.0
  0
LINE
  5
197
100
AcDbEntity
  8
0
  6
HIDDEN2
100
AcDbLine
 10
90.0
 20
62.0
 30
0.0
 11
90.0
 21
58.0
 31
0.0
  0
ENDBLK
  5
199
100
AcDbEntity
  8
0
100
AcDbBlockEnd
  0
BLOCK
  5
1B8
100
AcDbEntity
  8
0
100
AcDbBlockBegin
  2
A$C061D45EC
 70
     0
 10
0.0
 20
0.0
 30
0.0
  3
A$C061D45EC
  1

  0
LINE
  5
1AE
100
AcDbEntity
  8
0
100
AcDbLine
 10
0.0
 20
18.392157
 30
0.0
 11
52.5
 21
18.392157
 31
0.0
  0
LINE
  5
1AF
100
AcDbEntity
  8
0
100
AcDbLine
 10
0.0
 20
14.392157
 30
0.0
 11
52.5
 21
14.392157
 31
0.0
  0
LINE
  5
1B0
100
AcDbEntity
  8
0
100
AcDbLine
 10
0.0
 20
18.392157
 30
0.0
 11
0.0
 21
14.392157
 31
0.0
  0
LINE
  5
1B1
100
AcDbEntity
  8
0
100
AcDbLine
 10
64.5
 20
14.392157
 30
0.0
 11
95.0
 21
14.392157
 31
0.0
  0
LINE
  5
1B2
100
AcDbEntity
  8
0
100
AcDbLine
 10
64.5
 20
10.392157
 30
0.0
 11
95.0
 21
10.392157
 31
0.0
  0
LINE
  5
1B3
100
AcDbEntity
  8
0
100
AcDbLine
 10
52.5
 20
18.392157
 30
0.0
 11
64.5
 21
14.392157
 31
0.0
  0
LINE
  5
1B4
100
AcDbEntity
  8
0
100
AcDbLine
 10
52.5
 20
14.392157
 30
0.0
 11
64.5
 21
10.392157
 31
0.0
  0
LINE
  5
1B5
100
AcDbEntity
  8
0
100
AcDbLine
 10
90.0
 20
14.392157
 30
0.0
 11
90.0
 21
10.392157
 31
0.0
  0
LINE
  5
1B6
100
AcDbEntity
  8
0
100
AcDbLine
 10
85.0
 20
14.392157
 30
0.0
 11
85.0
 21
0.0
 31
0.0
  0
LINE
  5
1B7
100
AcDbEntity
  8
0
100
AcDbLine
 10
95.0
 20
14.392157
 30
0.0
 11
95.0
 21
0.0
 31
0.0
  0
ENDBLK
  5
1B9
100
AcDbEntity
  8
0
100
AcDbBlockEnd
  0
BLOCK
  5
599
100
AcDbEntity
  8
0
100
AcDbBlockBegin
  2
*D3
 70
     1
 10
0.0
 20
0.0
 30
0.0
  3
*D3
  1

  0
LINE
  5
59A
100
AcDbEntity
  8
0
  6
BYBLOCK
 62
     0
100
AcDbLine
 10
245.892646
 20
1858.776074
 30
0.0
 11
245.892646
 21
1887.452825
 31
0.0
  0
LINE
  5
59B
100
AcDbEntity
  8
0
  6
BYBLOCK
 62
     0
100
AcDbLine
 10
645.892646
 20
1857.713176
 30
0.0
 11
645.892646
 21
1887.452825
 31
0.0
  0
LINE
  5
59C
100
AcDbEntity
  8
0
  6
BYBLOCK
 62
     0
100
AcDbLine
 10
254.310154
 20
1883.244071
 30
0.0
 11
637.475137
 21
1883.244071
 31
0.0
  0
SOLID
  5
59D
100
AcDbEntity
  8
0
  6
BYBLOCK
 62
     0
100
AcDbTrace
 10
254.310154
 20
1884.646989
 30
0.0
 11
254.310154
 21
1881.841153
 31
0.0
 12
245.892646
 22
1883.244071
 32
0.0
 13
245.892646
 23
1883.244071
 33
0.0
  0
SOLID
  5
59E
100
AcDbEntity
  8
0
  6
BYBLOCK
 62
     0
100
AcDbTrace
 10
637.475137
 20
1884.646989
 30
0.0
 11
637.475137
 21
1881.841153
 31
0.0
 12
645.892646
 22
1883.244071
 32
0.0
 13
645.892646
 23
1883.244071
 33
0.0
  0
MTEXT
  5
59F
100
AcDbEntity
  8
0
  6
BYBLOCK
 62
     0
100
AcDbMText
 10
445.892646
 20
1895.348448
 30
0.0
 40
20.0
 41
0.0
 71
     5
 72
     1
  1
\A1;400
  0
POINT
  5
5A0
100
AcDbEntity
  8
DEFPOINTS
  6
BYBLOCK
 62
     0
100
AcDbPoint
 10
245.892646
 20
1856.671697
 30
0.0
  0
POINT
  5
5A1
100
AcDbEntity
  8
DEFPOINTS
  6
BYBLOCK
 62
     0
100
AcDbPoint
 10
645.892646
 20
1855.608798
 30
0.0
  0
POINT
  5
5A2
100
AcDbEntity
  8
DEFPOINTS
  6
BYBLOCK
 62
     0
100
AcDbPoint
 10
645.892646
 20
1883.244071
 30
0.0
  0
ENDBLK
  5
5A3
100
AcDbEntity
  8
0
100
AcDbBlockEnd
  0
BLOCK
  5
5C8
100
AcDbEntity
  8
0
100
AcDbBlockBegin
  2
*D4
 70
     1
 10
0.0
 20
0.0
 30
0.0
  3
*D4
  1

  0
LINE
  5
5C9
100
AcDbEntity
  8
0
  6
BYBLOCK
 62
     0
100
AcDbLine
 10
265.892646
 20
1347.193307
 30
0.0
 11
265.892646
 21
1306.189262
 31
0.0
  0
LINE
  5
5CA
100
AcDbEntity
  8
0
  6
BYBLOCK
 62
     0
100
AcDbLine
 10
625.892646
 20
1344.039277
 30
0.0
 11
625.892646
 21
1306.189262
 31
0.0
  0
LINE
  5
5CB
100
AcDbEntity
  8
0
  6
BYBLOCK
 62
     0
100
AcDbLine
 10
274.310154
 20
1310.398016
 30
0.0
 11
617.475137
 21
1310.398016
 31
0.0
  0
SOLID
  5
5CC
100
AcDbEntity
  8
0
  6
BYBLOCK
 62
     0
100
AcDbTrace
 10
274.310154
 20
1311.800934
 30
0.0
 11
274.310154
 21
1308.995098
 31
0.0
 12
265.892646
 22
1310.398016
 32
0.0
 13
265.892646
 23
1310.398016
 33
0.0
  0
SOLID
  5
5CD
100
AcDbEntity
  8
0
  6
BYBLOCK
 62
     0
100
AcDbTrace
 10
617.475137
 20
1311.800934
 30
0.0
 11
617.475137
 21
1308.995098
 31
0.0
 12
625.892646
 22
1310.398016
 32
0.0
 13
625.892646
 23
1310.398016
 33
0.0
  0
MTEXT
  5
5CE
100
AcDbEntity
  8
0
  6
BYBLOCK
 62
     0
100
AcDbMText
 10
445.892646
 20
1322.502393
 30
0.0
 40
20.0
 41
0.0
 71
     5
 72
     1
  1
\A1;360
  0
POINT
  5
5CF
100
AcDbEntity
  8
DEFPOINTS
  6
BYBLOCK
 62
     0
100
AcDbPoint
 10
265.892646
 20
1349.297684
 30
0.0
  0
POINT
  5
5D0
100
AcDbEntity
  8
DEFPOINTS
  6
BYBLOCK
 62
     0
100
AcDbPoint
 10
625.892646
 20
1346.143654
 30
0.0
  0
POINT
  5
5D1
100
AcDbEntity
  8
DEFPOINTS
  6
BYBLOCK
 62
     0
100
AcDbPoint
 10
625.892646
 20
1310.398016
 30
0.0
  0
ENDBLK
  5
5D2
100
AcDbEntity
  8
0
100
AcDbBlockEnd
  0
BLOCK
  5
664
100
AcDbEntity
  8
0
100
AcDbBlockBegin
  2
*D5
 70
     1
 10
0.0
 20
0.0
 30
0.0
  3
*D5
  1

  0
LINE
  5
665
100
AcDbEntity
  8
0
  6
BYBLOCK
 62
     0
100
AcDbLine
 10
710.866577
 20
1842.293319
 30
0.0
 11
764.617501
 21
1842.293319
 31
0.0
  0
LINE
  5
666
100
AcDbEntity
  8
0
  6
BYBLOCK
 62
     0
100
AcDbLine
 10
709.370629
 20
1742.293319
 30
0.0
 11
764.617501
 21
1742.293319
 31
0.0
  0
LINE
  5
667
100
AcDbEntity
  8
0
  6
BYBLOCK
 62
     0
100
AcDbLine
 10
760.408747
 20
1833.875811
 30
0.0
 11
760.408747
 21
1750.710827
 31
0.0
  0
SOLID
  5
668
100
AcDbEntity
  8
0
  6
BYBLOCK
 62
     0
100
AcDbTrace
 10
759.005829
 20
1833.875811
 30
0.0
 11
761.811665
 21
1833.875811
 31
0.0
 12
760.408747
 22
1842.293319
 32
0.0
 13
760.408747
 23
1842.293319
 33
0.0
  0
SOLID
  5
669
100
AcDbEntity
  8
0
  6
BYBLOCK
 62
     0
100
AcDbTrace
 10
759.005829
 20
1750.710827
 30
0.0
 11
761.811665
 21
1750.710827
 31
0.0
 12
760.408747
 22
1742.293319
 32
0.0
 13
760.408747
 23
1742.293319
 33
0.0
  0
MTEXT
  5
66A
100
AcDbEntity
  8
0
  6
BYBLOCK
 62
     0
100
AcDbMText
 10
748.30437
 20
1792.293319
 30
0.0
 40
20.0
 41
0.0
 71
     5
 72
     1
  1
\A1;100
 11
0.0
 21
1.0
 31
0.0
  0
POINT
  5
66B
100
AcDbEntity
  8
DEFPOINTS
  6
BYBLOCK
 62
     0
100
AcDbPoint
 10
708.7622
 20
1842.293319
 30
0.0
  0
POINT
  5
66C
100
AcDbEntity
  8
DEFPOINTS
  6
BYBLOCK
 62
     0
100
AcDbPoint
 10
707.266252
 20
1742.293319
 30
0.0
  0
POINT
  5
66D
100
AcDbEntity
  8
DEFPOINTS
  6
BYBLOCK
 62
     0
100
AcDbPoint
 10
760.408747
 20
1742.293319
 30
0.0
  0
ENDBLK
  5
66E
100
AcDbEntity
  8
0
100
AcDbBlockEnd
  0
BLOCK
  5
66F
100
AcDbEntity
  8
0
100
AcDbBlockBegin
  2
*D6
 70
     1
 10
0.0
 20
0.0
 30
0.0
  3
*D6
  1

  0
LINE
  5
670
100
AcDbEntity
  8
0
  6
BYBLOCK
 62
     0
100
AcDbLine
 10
665.988155
 20
1372.293319
 30
0.0
 11
764.617501
 21
1372.293319
 31
0.0
  0
LINE
  5
671
100
AcDbEntity
  8
0
  6
BYBLOCK
 62
     0
100
AcDbLine
 10
760.408747
 20
1733.875811
 30
0.0
 11
760.408747
 21
1380.710827
 31
0.0
  0
SOLID
  5
672
100
AcDbEntity
  8
0
  6
BYBLOCK
 62
     0
100
AcDbTrace
 10
759.005829
 20
1733.875811
 30
0.0
 11
761.811665
 21
1733.875811
 31
0.0
 12
760.408747
 22
1742.293319
 32
0.0
 13
760.408747
 23
1742.293319
 33
0.0
  0
SOLID
  5
673
100
AcDbEntity
  8
0
  6
BYBLOCK
 62
     0
100
AcDbTrace
 10
759.005829
 20
1380.710827
 30
0.0
 11
761.811665
 21
1380.710827
 31
0.0
 12
760.408747
 22
1372.293319
 32
0.0
 13
760.408747
 23
1372.293319
 33
0.0
  0
MTEXT
  5
674
100
AcDbEntity
  8
0
  6
BYBLOCK
 62
     0
100
AcDbMText
 10
748.30437
 20
1557.293319
 30
0.0
 40
20.0
 41
0.0
 71
     5
 72
     1
  1
\A1;370
 11
0.0
 21
1.0
 31
0.0
  0
POINT
  5
675
100
AcDbEntity
  8
DEFPOINTS
  6
BYBLOCK
 62
     0
100
AcDbPoint
 10
707.266252
 20
1742.293319
 30
0.0
  0
POINT
  5
676
100
AcDbEntity
  8
DEFPOINTS
  6
BYBLOCK
 62
     0
100
AcDbPoint
 10
663.883778
 20
1372.293319
 30
0.0
  0
POINT
  5
677
100
AcDbEntity
  8
DEFPOINTS
  6
BYBLOCK
 62
     0
100
AcDbPoint
 10
760.408747
 20
1372.293319
 30
0.0
  0
ENDBLK
  5
678
100
AcDbEntity
  8
0
100
AcDbBlockEnd
  0
BLOCK
  5
679
100
AcDbEntity
  8
0
100
AcDbBlockBegin
  2
*D7
 70
     1
 10
0.0
 20
0.0
 30
0.0
  3
*D7
  1

  0
LINE
  5
67A
100
AcDbEntity
  8
0
  6
BYBLOCK
 62
     0
100
AcDbLine
 10
715.354423
 20
1242.293319
 30
0.0
 11
764.617501
 21
1242.293319
 31
0.0
  0
LINE
  5
67B
100
AcDbEntity
  8
0
  6
BYBLOCK
 62
     0
100
AcDbLine
 10
760.408747
 20
1363.875811
 30
0.0
 11
760.408747
 21
1250.710827
 31
0.0
  0
SOLID
  5
67C
100
AcDbEntity
  8
0
  6
BYBLOCK
 62
     0
100
AcDbTrace
 10
759.005829
 20
1363.875811
 30
0.0
 11
761.811665
 21
1363.875811
 31
0.0
 12
760.408747
 22
1372.293319
 32
0.0
 13
760.408747
 23
1372.293319
 33
0.0
  0
SOLID
  5
67D
100
AcDbEntity
  8
0
  6
BYBLOCK
 62
     0
100
AcDbTrace
 10
759.005829
 20
1250.710827
 30
0.0
 11
761.811665
 21
1250.710827
 31
0.0
 12
760.408747
 22
1242.293319
 32
0.0
 13
760.408747
 23
1242.293319
 33
0.0
  0
MTEXT
  5
67E
100
AcDbEntity
  8
0
  6
BYBLOCK
 62
     0
100
AcDbMText
 10
748.30437
 20
1307.293319
 30
0.0
 40
20.0
 41
0.0
 71
     5
 72
     1
  1
\A1;130
 11
0.0
 21
1.0
 31
0.0
  0
POINT
  5
67F
100
AcDbEntity
  8
DEFPOINTS
  6
BYBLOCK
 62
     0
100
AcDbPoint
 10
663.883778
 20
1372.293319
 30
0.0
  0
POINT
  5
680
100
AcDbEntity
  8
DEFPOINTS
  6
BYBLOCK
 62
     0
100
AcDbPoint
 10
713.250046
 20
1242.293319
 30
0.0
  0
POINT
  5
681
100
AcDbEntity
  8
DEFPOINTS
  6
BYBLOCK
 62
     0
100
AcDbPoint
 10
760.408747
 20
1242.293319
 30
0.0
  0
ENDBLK
  5
682
100
AcDbEntity
  8
0
100
AcDbBlockEnd
  0
BLOCK
  5
659
100
AcDbEntity
  8
0
100
AcDbBlockBegin
  2
*D8
 70
     1
 10
0.0
 20
0.0
 30
0.0
  3
*D8
  1

  0
LINE
  5
65A
100
AcDbEntity
  8
0
  6
BYBLOCK
 62
     0
100
AcDbLine
 10
712.362526
 20
1842.293319
 30
0.0
 11
825.167001
 21
1842.293319
 31
0.0
  0
LINE
  5
65B
100
AcDbEntity
  8
0
  6
BYBLOCK
 62
     0
100
AcDbLine
 10
713.858474
 20
1242.293319
 30
0.0
 11
825.167001
 21
1242.293319
 31
0.0
  0
LINE
  5
65C
100
AcDbEntity
  8
0
  6
BYBLOCK
 62
     0
100
AcDbLine
 10
820.958247
 20
1833.875811
 30
0.0
 11
820.958247
 21
1250.710827
 31
0.0
  0
SOLID
  5
65D
100
AcDbEntity
  8
0
  6
BYBLOCK
 62
     0
100
AcDbTrace
 10
819.555329
 20
1833.875811
 30
0.0
 11
822.361165
 21
1833.875811
 31
0.0
 12
820.958247
 22
1842.293319
 32
0.0
 13
820.958247
 23
1842.293319
 33
0.0
  0
SOLID
  5
65E
100
AcDbEntity
  8
0
  6
BYBLOCK
 62
     0
100
AcDbTrace
 10
819.555329
 20
1250.710827
 30
0.0
 11
822.361165
 21
1250.710827
 31
0.0
 12
820.958247
 22
1242.293319
 32
0.0
 13
820.958247
 23
1242.293319
 33
0.0
  0
MTEXT
  5
65F
100
AcDbEntity
  8
0
  6
BYBLOCK
 62
     0
100
AcDbMText
 10
808.85387
 20
1542.293319
 30
0.0
 40
20.0
 41
0.0
 71
     5
 72
     1
  1
\A1;600
 11
0.0
 21
1.0
 31
0.0
  0
POINT
  5
660
100
AcDbEntity
  8
DEFPOINTS
  6
BYBLOCK
 62
     0
100
AcDbPoint
 10
710.258149
 20
1842.293319
 30
0.0
  0
POINT
  5
661
100
AcDbEntity
  8
DEFPOINTS
  6
BYBLOCK
 62
     0
100
AcDbPoint
 10
711.754097
 20
1242.293319
 30
0.0
  0
POINT
  5
662
100
AcDbEntity
  8
DEFPOINTS
  6
BYBLOCK
 62
     0
100
AcDbPoint
 10
820.958247
 20
1242.293319
 30
0.0
  0
ENDBLK
  5
663
100
AcDbEntity
  8
0
100
AcDbBlockEnd
  0
BLOCK
  5
708
100
AcDbEntity
  8
0
100
AcDbBlockBegin
  2
*D9
 70
     1
 10
0.0
 20
0.0
 30
0.0
  3
*D9
  1

  0
LINE
  5
709
100
AcDbEntity
  8
0
  6
BYBLOCK
 62
     0
100
AcDbLine
 10
2035.959519
 20
962.437322
 30
0.0
 11
2035.959519
 21
1010.177431
 31
0.0
  0
LINE
  5
70A
100
AcDbEntity
  8
0
  6
BYBLOCK
 62
     0
100
AcDbLine
 10
1935.959519
 20
962.437322
 30
0.0
 11
1935.959519
 21
1010.177431
 31
0.0
  0
LINE
  5
70B
100
AcDbEntity
  8
0
  6
BYBLOCK
 62
     0
100
AcDbLine
 10
2027.54201
 20
1005.968677
 30
0.0
 11
1944.377027
 21
1005.968677
 31
0.0
  0
SOLID
  5
70C
100
AcDbEntity
  8
0
  6
BYBLOCK
 62
     0
100
AcDbTrace
 10
2027.54201
 20
1007.371595
 30
0.0
 11
2027.54201
 21
1004.565759
 31
0.0
 12
2035.959519
 22
1005.968677
 32
0.0
 13
2035.959519
 23
1005.968677
 33
0.0
  0
SOLID
  5
70D
100
AcDbEntity
  8
0
  6
BYBLOCK
 62
     0
100
AcDbTrace
 10
1944.377027
 20
1007.371595
 30
0.0
 11
1944.377027
 21
1004.565759
 31
0.0
 12
1935.959519
 22
1005.968677
 32
0.0
 13
1935.959519
 23
1005.968677
 33
0.0
  0
MTEXT
  5
70E
100
AcDbEntity
  8
0
  6
BYBLOCK
 62
     0
100
AcDbMText
 10
1985.959519
 20
1018.073054
 30
0.0
 40
20.0
 41
0.0
 71
     5
 72
     1
  1
\A1;100
  0
POINT
  5
70F
100
AcDbEntity
  8
DEFPOINTS
  6
BYBLOCK
 62
     0
100
AcDbPoint
 10
2035.959519
 20
960.332945
 30
0.0
  0
POINT
  5
710
100
AcDbEntity
  8
DEFPOINTS
  6
BYBLOCK
 62
     0
100
AcDbPoint
 10
1935.959519
 20
960.332945
 30
0.0
  0
POINT
  5
711
100
AcDbEntity
  8
DEFPOINTS
  6
BYBLOCK
 62
     0
100
AcDbPoint
 10
1935.959519
 20
1005.968677
 30
0.0
  0
ENDBLK
  5
712
100
AcDbEntity
  8
0
100
AcDbBlockEnd
  0
BLOCK
  5
6FE
100
AcDbEntity
  8
0
100
AcDbBlockBegin
  2
*D10
 70
     1
 10
0.0
 20
0.0
 30
0.0
  3
*D10
  1

  0
LINE
  5
6FF
100
AcDbEntity
  8
0
  6
BYBLOCK
 62
     0
100
AcDbLine
 10
1565.959519
 20
868.630535
 30
0.0
 11
1565.959519
 21
1010.177431
 31
0.0
  0
LINE
  5
700
100
AcDbEntity
  8
0
  6
BYBLOCK
 62
     0
100
AcDbLine
 10
1927.54201
 20
1005.968677
 30
0.0
 11
1574.377027
 21
1005.968677
 31
0.0
  0
SOLID
  5
701
100
AcDbEntity
  8
0
  6
BYBLOCK
 62
     0
100
AcDbTrace
 10
1927.54201
 20
1007.371595
 30
0.0
 11
1927.54201
 21
1004.565759
 31
0.0
 12
1935.959519
 22
1005.968677
 32
0.0
 13
1935.959519
 23
1005.968677
 33
0.0
  0
SOLID
  5
702
100
AcDbEntity
  8
0
  6
BYBLOCK
 62
     0
100
AcDbTrace
 10
1574.377027
 20
1007.371595
 30
0.0
 11
1574.377027
 21
1004.565759
 31
0.0
 12
1565.959519
 22
1005.968677
 32
0.0
 13
1565.959519
 23
1005.968677
 33
0.0
  0
MTEXT
  5
703
100
AcDbEntity
  8
0
  6
BYBLOCK
 62
     0
100
AcDbMText
 10
1750.959519
 20
1018.073054
 30
0.0
 40
20.0
 41
0.0
 71
     5
 72
     1
  1
\A1;370
  0
POINT
  5
704
100
AcDbEntity
  8
DEFPOINTS
  6
BYBLOCK
 62
     0
100
AcDbPoint
 10
1935.959519
 20
960.332945
 30
0.0
  0
POINT
  5
705
100
AcDbEntity
  8
DEFPOINTS
  6
BYBLOCK
 62
     0
100
AcDbPoint
 10
1565.959519
 20
866.526158
 30
0.0
  0
POINT
  5
706
100
AcDbEntity
  8
DEFPOINTS
  6
BYBLOCK
 62
     0
100
AcDbPoint
 10
1565.959519
 20
1005.968677
 30
0.0
  0
ENDBLK
  5
707
100
AcDbEntity
  8
0
100
AcDbBlockEnd
  0
BLOCK
  5
6F4
100
AcDbEntity
  8
0
100
AcDbBlockBegin
  2
*D11
 70
     1
 10
0.0
 20
0.0
 30
0.0
  3
*D11
  1

  0
LINE
  5
6F5
100
AcDbEntity
  8
0
  6
BYBLOCK
 62
     0
100
AcDbLine
 10
1435.959519
 20
871.165854
 30
0.0
 11
1435.959519
 21
1010.177431
 31
0.0
  0
LINE
  5
6F6
100
AcDbEntity
  8
0
  6
BYBLOCK
 62
     0
100
AcDbLine
 10
1557.54201
 20
1005.968677
 30
0.0
 11
1444.377027
 21
1005.968677
 31
0.0
  0
SOLID
  5
6F7
100
AcDbEntity
  8
0
  6
BYBLOCK
 62
     0
100
AcDbTrace
 10
1557.54201
 20
1007.371595
 30
0.0
 11
1557.54201
 21
1004.565759
 31
0.0
 12
1565.959519
 22
1005.968677
 32
0.0
 13
1565.959519
 23
1005.968677
 33
0.0
  0
SOLID
  5
6F8
100
AcDbEntity
  8
0
  6
BYBLOCK
 62
     0
100
AcDbTrace
 10
1444.377027
 20
1007.371595
 30
0.0
 11
1444.377027
 21
1004.565759
 31
0.0
 12
1435.959519
 22
1005.968677
 32
0.0
 13
1435.959519
 23
1005.968677
 33
0.0
  0
MTEXT
  5
6F9
100
AcDbEntity
  8
0
  6
BYBLOCK
 62
     0
100
AcDbMText
 10
1500.959519
 20
1018.073054
 30
0.0
 40
20.0
 41
0.0
 71
     5
 72
     1
  1
\A1;130
  0
POINT
  5
6FA
100
AcDbEntity
  8
DEFPOINTS
  6
BYBLOCK
 62
     0
100
AcDbPoint
 10
1565.959519
 20
866.526158
 30
0.0
  0
POINT
  5
6FB
100
AcDbEntity
  8
DEFPOINTS
  6
BYBLOCK
 62
     0
100
AcDbPoint
 10
1435.959519
 20
869.061477
 30
0.0
  0
POINT
  5
6FC
100
AcDbEntity
  8
DEFPOINTS
  6
BYBLOCK
 62
     0
100
AcDbPoint
 10
1435.959519
 20
1005.968677
 30
0.0
  0
ENDBLK
  5
6FD
100
AcDbEntity
  8
0
100
AcDbBlockEnd
  0
BLOCK
  5
764
100
AcDbEntity
  8
0
100
AcDbBlockBegin
  2
*D12
 70
     1
 10
0.0
 20
0.0
 30
0.0
  3
*D12
  1

  0
LINE
  5
765
100
AcDbEntity
  8
0
  6
BYBLOCK
 62
     0
100
AcDbLine
 10
245.892646
 20
960.165229
 30
0.0
 11
245.892646
 21
995.816123
 31
0.0
  0
LINE
  5
766
100
AcDbEntity
  8
0
  6
BYBLOCK
 62
     0
100
AcDbLine
 10
645.892646
 20
961.097079
 30
0.0
 11
645.892646
 21
995.816123
 31
0.0
  0
LINE
  5
767
100
AcDbEntity
  8
0
  6
BYBLOCK
 62
     0
100
AcDbLine
 10
254.310154
 20
991.607369
 30
0.0
 11
637.475137
 21
991.607369
 31
0.0
  0
SOLID
  5
768
100
AcDbEntity
  8
0
  6
BYBLOCK
 62
     0
100
AcDbTrace
 10
254.310154
 20
993.010287
 30
0.0
 11
254.310154
 21
990.204451
 31
0.0
 12
245.892646
 22
991.607369
 32
0.0
 13
245.892646
 23
991.607369
 33
0.0
  0
SOLID
  5
769
100
AcDbEntity
  8
0
  6
BYBLOCK
 62
     0
100
AcDbTrace
 10
637.475137
 20
993.010287
 30
0.0
 11
637.475137
 21
990.204451
 31
0.0
 12
645.892646
 22
991.607369
 32
0.0
 13
645.892646
 23
991.607369
 33
0.0
  0
MTEXT
  5
76A
100
AcDbEntity
  8
0
  6
BYBLOCK
 62
     0
100
AcDbMText
 10
445.892646
 20
1003.711746
 30
0.0
 40
20.0
 41
0.0
 71
     5
 72
     1
  1
\A1;400
  0
POINT
  5
76B
100
AcDbEntity
  8
DEFPOINTS
  6
BYBLOCK
 62
     0
100
AcDbPoint
 10
245.892646
 20
958.060852
 30
0.0
  0
POINT
  5
76C
100
AcDbEntity
  8
DEFPOINTS
  6
BYBLOCK
 62
     0
100
AcDbPoint
 10
645.892646
 20
958.992702
 30
0.0
  0
POINT
  5
76D
100
AcDbEntity
  8
DEFPOINTS
  6
BYBLOCK
 62
     0
100
AcDbPoint
 10
645.892646
 20
991.607369
 30
0.0
  0
ENDBLK
  5
76E
100
AcDbEntity
  8
0
100
AcDbBlockEnd
  0
BLOCK
  5
81F
100
AcDbEntity
  8
0
100
AcDbBlockBegin
  2
*D13
 70
     1
 10
0.0
 20
0.0
 30
0.0
  3
*D13
  1

  0
LINE
  5
820
100
AcDbEntity
  8
0
  6
BYBLOCK
 62
     0
100
AcDbLine
 10
718.59887
 20
42.87257
 30
0.0
 11
808.600479
 21
42.87257
 31
0.0
  0
LINE
  5
821
100
AcDbEntity
  8
0
  6
BYBLOCK
 62
     0
100
AcDbLine
 10
720.691663
 20
142.87257
 30
0.0
 11
808.600479
 21
142.87257
 31
0.0
  0
LINE
  5
822
100
AcDbEntity
  8
0
  6
BYBLOCK
 62
     0
100
AcDbLine
 10
804.391725
 20
51.290079
 30
0.0
 11
804.391725
 21
134.455062
 31
0.0
  0
SOLID
  5
823
100
AcDbEntity
  8
0
  6
BYBLOCK
 62
     0
100
AcDbTrace
 10
802.988807
 20
51.290079
 30
0.0
 11
805.794643
 21
51.290079
 31
0.0
 12
804.391725
 22
42.87257
 32
0.0
 13
804.391725
 23
42.87257
 33
0.0
  0
SOLID
  5
824
100
AcDbEntity
  8
0
  6
BYBLOCK
 62
     0
100
AcDbTrace
 10
802.988807
 20
134.455062
 30
0.0
 11
805.794643
 21
134.455062
 31
0.0
 12
804.391725
 22
142.87257
 32
0.0
 13
804.391725
 23
142.87257
 33
0.0
  0
MTEXT
  5
825
100
AcDbEntity
  8
0
  6
BYBLOCK
 62
     0
100
AcDbMText
 10
792.287348
 20
92.87257
 30
0.0
 40
20.0
 41
0.0
 71
     5
 72
     1
  1
\A1;100
 11
0.0
 21
1.0
 31
0.0
  0
POINT
  5
826
100
AcDbEntity
  8
DEFPOINTS
  6
BYBLOCK
 62
     0
100
AcDbPoint
 10
716.494493
 20
42.87257
 30
0.0
  0
POINT
  5
827
100
AcDbEntity
  8
DEFPOINTS
  6
BYBLOCK
 62
     0
100
AcDbPoint
 10
718.587286
 20
142.87257
 30
0.0
  0
POINT
  5
828
100
AcDbEntity
  8
DEFPOINTS
  6
BYBLOCK
 62
     0
100
AcDbPoint
 10
804.391725
 20
142.87257
 30
0.0
  0
ENDBLK
  5
829
100
AcDbEntity
  8
0
100
AcDbBlockEnd
  0
BLOCK
  5
80B
100
AcDbEntity
  8
0
100
AcDbBlockBegin
  2
*D14
 70
     1
 10
0.0
 20
0.0
 30
0.0
  3
*D14
  1

  0
LINE
  5
80C
100
AcDbEntity
  8
0
  6
BYBLOCK
 62
     0
100
AcDbLine
 10
726.970034
 20
842.87257
 30
0.0
 11
808.600479
 21
842.87257
 31
0.0
  0
LINE
  5
80D
100
AcDbEntity
  8
0
  6
BYBLOCK
 62
     0
100
AcDbLine
 10
804.391725
 20
151.290079
 30
0.0
 11
804.391725
 21
834.455062
 31
0.0
  0
SOLID
  5
80E
100
AcDbEntity
  8
0
  6
BYBLOCK
 62
     0
100
AcDbTrace
 10
802.988807
 20
151.290079
 30
0.0
 11
805.794643
 21
151.290079
 31
0.0
 12
804.391725
 22
142.87257
 32
0.0
 13
804.391725
 23
142.87257
 33
0.0
  0
SOLID
  5
80F
100
AcDbEntity
  8
0
  6
BYBLOCK
 62
     0
100
AcDbTrace
 10
802.988807
 20
834.455062
 30
0.0
 11
805.794643
 21
834.455062
 31
0.0
 12
804.391725
 22
842.87257
 32
0.0
 13
804.391725
 23
842.87257
 33
0.0
  0
MTEXT
  5
810
100
AcDbEntity
  8
0
  6
BYBLOCK
 62
     0
100
AcDbMText
 10
792.287348
 20
492.87257
 30
0.0
 40
20.0
 41
0.0
 71
     5
 72
     1
  1
\A1;700
 11
0.0
 21
1.0
 31
0.0
  0
POINT
  5
811
100
AcDbEntity
  8
DEFPOINTS
  6
BYBLOCK
 62
     0
100
AcDbPoint
 10
718.587286
 20
142.87257
 30
0.0
  0
POINT
  5
812
100
AcDbEntity
  8
DEFPOINTS
  6
BYBLOCK
 62
     0
100
AcDbPoint
 10
724.865657
 20
842.87257
 30
0.0
  0
POINT
  5
813
100
AcDbEntity
  8
DEFPOINTS
  6
BYBLOCK
 62
     0
100
AcDbPoint
 10
804.391725
 20
842.87257
 30
0.0
  0
ENDBLK
  5
814
100
AcDbEntity
  8
0
100
AcDbBlockEnd
  0
BLOCK
  5
815
100
AcDbEntity
  8
0
100
AcDbBlockBegin
  2
*D15
 70
     1
 10
0.0
 20
0.0
 30
0.0
  3
*D15
  1

  0
LINE
  5
816
100
AcDbEntity
  8
0
  6
BYBLOCK
 62
     0
100
AcDbLine
 10
676.743047
 20
942.87257
 30
0.0
 11
808.600479
 21
942.87257
 31
0.0
  0
LINE
  5
817
100
AcDbEntity
  8
0
  6
BYBLOCK
 62
     0
100
AcDbLine
 10
804.391725
 20
851.290079
 30
0.0
 11
804.391725
 21
934.455062
 31
0.0
  0
SOLID
  5
818
100
AcDbEntity
  8
0
  6
BYBLOCK
 62
     0
100
AcDbTrace
 10
802.988807
 20
851.290079
 30
0.0
 11
805.794643
 21
851.290079
 31
0.0
 12
804.391725
 22
842.87257
 32
0.0
 13
804.391725
 23
842.87257
 33
0.0
  0
SOLID
  5
819
100
AcDbEntity
  8
0
  6
BYBLOCK
 62
     0
100
AcDbTrace
 10
802.988807
 20
934.455062
 30
0.0
 11
805.794643
 21
934.455062
 31
0.0
 12
804.391725
 22
942.87257
 32
0.0
 13
804.391725
 23
942.87257
 33
0.0
  0
MTEXT
  5
81A
100
AcDbEntity
  8
0
  6
BYBLOCK
 62
     0
100
AcDbMText
 10
792.287348
 20
892.87257
 30
0.0
 40
20.0
 41
0.0
 71
     5
 72
     1
  1
\A1;100
 11
0.0
 21
1.0
 31
0.0
  0
POINT
  5
81B
100
AcDbEntity
  8
DEFPOINTS
  6
BYBLOCK
 62
     0
100
AcDbPoint
 10
724.865657
 20
842.87257
 30
0.0
  0
POINT
  5
81C
100
AcDbEntity
  8
DEFPOINTS
  6
BYBLOCK
 62
     0
100
AcDbPoint
 10
674.63867
 20
942.87257
 30
0.0
  0
POINT
  5
81D
100
AcDbEntity
  8
DEFPOINTS
  6
BYBLOCK
 62
     0
100
AcDbPoint
 10
804.391725
 20
942.87257
 30
0.0
  0
ENDBLK
  5
81E
100
AcDbEntity
  8
0
100
AcDbBlockEnd
  0
BLOCK
  5
86C
100
AcDbEntity
  8
0
100
AcDbBlockBegin
  2
*D16
 70
     1
 10
0.0
 20
0.0
 30
0.0
  3
*D16
  1

  0
LINE
  5
86D
100
AcDbEntity
  8
0
  6
BYBLOCK
 62
     0
100
AcDbLine
 10
674.650254
 20
942.87257
 30
0.0
 11
886.033754
 21
942.87257
 31
0.0
  0
LINE
  5
86E
100
AcDbEntity
  8
0
  6
BYBLOCK
 62
     0
100
AcDbLine
 10
805.860945
 20
42.87257
 30
0.0
 11
886.033754
 21
42.87257
 31
0.0
  0
LINE
  5
86F
100
AcDbEntity
  8
0
  6
BYBLOCK
 62
     0
100
AcDbLine
 10
881.824999
 20
934.455062
 30
0.0
 11
881.824999
 21
51.290079
 31
0.0
  0
SOLID
  5
870
100
AcDbEntity
  8
0
  6
BYBLOCK
 62
     0
100
AcDbTrace
 10
880.422081
 20
934.455062
 30
0.0
 11
883.227918
 21
934.455062
 31
0.0
 12
881.824999
 22
942.87257
 32
0.0
 13
881.824999
 23
942.87257
 33
0.0
  0
SOLID
  5
871
100
AcDbEntity
  8
0
  6
BYBLOCK
 62
     0
100
AcDbTrace
 10
880.422081
 20
51.290079
 30
0.0
 11
883.227918
 21
51.290079
 31
0.0
 12
881.824999
 22
42.87257
 32
0.0
 13
881.824999
 23
42.87257
 33
0.0
  0
MTEXT
  5
872
100
AcDbEntity
  8
0
  6
BYBLOCK
 62
     0
100
AcDbMText
 10
869.720622
 20
492.87257
 30
0.0
 40
20.0
 41
0.0
 71
     5
 72
     1
  1
\A1;900
 11
0.0
 21
1.0
 31
0.0
  0
POINT
  5
873
100
AcDbEntity
  8
DEFPOINTS
  6
BYBLOCK
 62
     0
100
AcDbPoint
 10
672.545877
 20
942.87257
 30
0.0
  0
POINT
  5
874
100
AcDbEntity
  8
DEFPOINTS
  6
BYBLOCK
 62
     0
100
AcDbPoint
 10
803.756568
 20
42.87257
 30
0.0
  0
POINT
  5
875
100
AcDbEntity
  8
DEFPOINTS
  6
BYBLOCK
 62
     0
100
AcDbPoint
 10
881.824999
 20
42.87257
 30
0.0
  0
ENDBLK
  5
876
100
AcDbEntity
  8
0
100
AcDbBlockEnd
  0
BLOCK
  5
898
100
AcDbEntity
  8
0
100
AcDbBlockBegin
  2
*D17
 70
     1
 10
0.0
 20
0.0
 30
0.0
  3
*D17
  1

  0
LINE
  5
899
100
AcDbEntity
  8
0
  6
BYBLOCK
 62
     0
100
AcDbLine
 10
1783.063896
 20
697.87257
 30
0.0
 11
1789.376896
 21
697.87257
 31
0.0
  0
LINE
  5
89A
100
AcDbEntity
  8
0
  6
BYBLOCK
 62
     0
100
AcDbLine
 10
1783.063896
 20
817.87257
 30
0.0
 11
1789.376896
 21
817.87257
 31
0.0
  0
LINE
  5
89B
100
AcDbEntity
  8
0
  6
BYBLOCK
 62
     0
100
AcDbLine
 10
1785.168142
 20
706.290079
 30
0.0
 11
1785.168142
 21
809.455062
 31
0.0
  0
SOLID
  5
89C
100
AcDbEntity
  8
0
  6
BYBLOCK
 62
     0
100
AcDbTrace
 10
1783.765224
 20
706.290079
 30
0.0
 11
1786.57106
 21
706.290079
 31
0.0
 12
1785.168142
 22
697.87257
 32
0.0
 13
1785.168142
 23
697.87257
 33
0.0
  0
SOLID
  5
89D
100
AcDbEntity
  8
0
  6
BYBLOCK
 62
     0
100
AcDbTrace
 10
1783.765224
 20
809.455062
 30
0.0
 11
1786.57106
 21
809.455062
 31
0.0
 12
1785.168142
 22
817.87257
 32
0.0
 13
1785.168142
 23
817.87257
 33
0.0
  0
MTEXT
  5
89E
100
AcDbEntity
  8
0
  6
BYBLOCK
 62
     0
100
AcDbMText
 10
1773.063765
 20
757.87257
 30
0.0
 40
20.0
 41
0.0
 71
     5
 72
     1
  1
\A1;120
 11
0.0
 21
1.0
 31
0.0
  0
POINT
  5
89F
100
AcDbEntity
  8
DEFPOINTS
  6
BYBLOCK
 62
     0
100
AcDbPoint
 10
1780.959519
 20
697.87257
 30
0.0
  0
POINT
  5
8A0
100
AcDbEntity
  8
DEFPOINTS
  6
BYBLOCK
 62
     0
100
AcDbPoint
 10
1780.959519
 20
817.87257
 30
0.0
  0
POINT
  5
8A1
100
AcDbEntity
  8
DEFPOINTS
  6
BYBLOCK
 62
     0
100
AcDbPoint
 10
1785.168142
 20
817.87257
 30
0.0
  0
ENDBLK
  5
8A2
100
AcDbEntity
  8
0
100
AcDbBlockEnd
  0
BLOCK
  5
8FD
100
AcDbEntity
  8
0
100
AcDbBlockBegin
  2
*D18
 70
     1
 10
0.0
 20
0.0
 30
0.0
  3
*D18
  1

  0
LINE
  5
8FE
100
AcDbEntity
  8
0
  6
BYBLOCK
 62
     0
100
AcDbLine
 10
205.892646
 20
864.06507
 30
0.0
 11
205.892646
 21
1049.89023
 31
0.0
  0
LINE
  5
8FF
100
AcDbEntity
  8
0
  6
BYBLOCK
 62
     0
100
AcDbLine
 10
685.892646
 20
864.06507
 30
0.0
 11
685.892646
 21
1049.89023
 31
0.0
  0
LINE
  5
900
100
AcDbEntity
  8
0
  6
BYBLOCK
 62
     0
100
AcDbLine
 10
214.310154
 20
1045.681476
 30
0.0
 11
677.475137
 21
1045.681476
 31
0.0
  0
SOLID
  5
901
100
AcDbEntity
  8
0
  6
BYBLOCK
 62
     0
100
AcDbTrace
 10
214.310154
 20
1047.084394
 30
0.0
 11
214.310154
 21
1044.278558
 31
0.0
 12
205.892646
 22
1045.681476
 32
0.0
 13
205.892646
 23
1045.681476
 33
0.0
  0
SOLID
  5
902
100
AcDbEntity
  8
0
  6
BYBLOCK
 62
     0
100
AcDbTrace
 10
677.475137
 20
1047.084394
 30
0.0
 11
677.475137
 21
1044.278558
 31
0.0
 12
685.892646
 22
1045.681476
 32
0.0
 13
685.892646
 23
1045.681476
 33
0.0
  0
MTEXT
  5
903
100
AcDbEntity
  8
0
  6
BYBLOCK
 62
     0
100
AcDbMText
 10
445.892646
 20
1057.785853
 30
0.0
 40
20.0
 41
0.0
 71
     5
 72
     1
  1
\A1;480
  0
POINT
  5
904
100
AcDbEntity
  8
DEFPOINTS
  6
BYBLOCK
 62
     0
100
AcDbPoint
 10
205.892646
 20
861.960693
 30
0.0
  0
POINT
  5
905
100
AcDbEntity
  8
DEFPOINTS
  6
BYBLOCK
 62
     0
100
AcDbPoint
 10
685.892646
 20
861.960693
 30
0.0
  0
POINT
  5
906
100
AcDbEntity
  8
DEFPOINTS
  6
BYBLOCK
 62
     0
100
AcDbPoint
 10
685.892646
 20
1045.681476
 30
0.0
  0
ENDBLK
  5
907
100
AcDbEntity
  8
0
100
AcDbBlockEnd
  0
BLOCK
  5
92D
100
AcDbEntity
  8
0
100
AcDbBlockBegin
  2
*D19
 70
     1
 10
0.0
 20
0.0
 30
0.0
  3
*D19
  1

  0
LINE
  5
92E
100
AcDbEntity
  8
0
  6
BYBLOCK
 62
     0
100
AcDbLine
 10
205.892646
 20
1863.349112
 30
0.0
 11
205.892646
 21
1940.891181
 31
0.0
  0
LINE
  5
92F
100
AcDbEntity
  8
0
  6
BYBLOCK
 62
     0
100
AcDbLine
 10
685.892646
 20
1863.349112
 30
0.0
 11
685.892646
 21
1940.891181
 31
0.0
  0
LINE
  5
930
100
AcDbEntity
  8
0
  6
BYBLOCK
 62
     0
100
AcDbLine
 10
214.310154
 20
1936.682427
 30
0.0
 11
677.475137
 21
1936.682427
 31
0.0
  0
SOLID
  5
931
100
AcDbEntity
  8
0
  6
BYBLOCK
 62
     0
100
AcDbTrace
 10
214.310154
 20
1938.085345
 30
0.0
 11
214.310154
 21
1935.279509
 31
0.0
 12
205.892646
 22
1936.682427
 32
0.0
 13
205.892646
 23
1936.682427
 33
0.0
  0
SOLID
  5
932
100
AcDbEntity
  8
0
  6
BYBLOCK
 62
     0
100
AcDbTrace
 10
677.475137
 20
1938.085345
 30
0.0
 11
677.475137
 21
1935.279509
 31
0.0
 12
685.892646
 22
1936.682427
 32
0.0
 13
685.892646
 23
1936.682427
 33
0.0
  0
MTEXT
  5
933
100
AcDbEntity
  8
0
  6
BYBLOCK
 62
     0
100
AcDbMText
 10
445.892646
 20
1948.786804
 30
0.0
 40
20.0
 41
0.0
 71
     5
 72
     1
  1
\A1;480
  0
POINT
  5
934
100
AcDbEntity
  8
DEFPOINTS
  6
BYBLOCK
 62
     0
100
AcDbPoint
 10
205.892646
 20
1861.244735
 30
0.0
  0
POINT
  5
935
100
AcDbEntity
  8
DEFPOINTS
  6
BYBLOCK
 62
     0
100
AcDbPoint
 10
685.892646
 20
1861.244735
 30
0.0
  0
POINT
  5
936
100
AcDbEntity
  8
DEFPOINTS
  6
BYBLOCK
 62
     0
100
AcDbPoint
 10
685.892646
 20
1936.682427
 30
0.0
  0
ENDBLK
  5
937
100
AcDbEntity
  8
0
100
AcDbBlockEnd
  0
ENDSEC
  0
SECTION
  2
ENTITIES
  0
LINE
  5
3B
100
AcDbEntity
  8
0
100
AcDbLine
 10
215.892646
 20
42.87257
 30
0.0
 11
245.892646
 21
42.87257
 31
0.0
  0
LINE
  5
3C
100
AcDbEntity
  8
0
100
AcDbLine
 10
205.892646
 20
1842.293319
 30
0.0
 11
205.892646
 21
1242.293319
 31
0.0
  0
LINE
  5
3D
100
AcDbEntity
  8
0
100
AcDbLine
 10
205.892646
 20
842.87257
 30
0.0
 11
685.892646
 21
842.87257
 31
0.0
  0
LINE
  5
3E
100
AcDbEntity
  8
0
100
AcDbLine
 10
245.892646
 20
942.87257
 30
0.0
 11
645.892646
 21
942.87257
 31
0.0
  0
LINE
  5
3F
100
AcDbEntity
  8
0
100
AcDbLine
 10
685.892646
 20
1842.293319
 30
0.0
 11
685.892646
 21
1242.293319
 31
0.0
  0
LINE
  5
40
100
AcDbEntity
  8
0
100
AcDbLine
 10
1531.389366
 20
842.87257
 30
0.0
 11
1531.389366
 21
817.87257
 31
0.0
  0
LINE
  5
41
100
AcDbEntity
  8
0
100
AcDbLine
 10
2131.389366
 20
942.87257
 30
0.0
 11
2131.389366
 21
817.87257
 31
0.0
  0
LINE
  5
42
100
AcDbEntity
  8
0
100
AcDbLine
 10
205.892646
 20
1242.293319
 30
0.0
 11
685.892646
 21
1242.293319
 31
0.0
  0
LINE
  5
43
100
AcDbEntity
  8
0
100
AcDbLine
 10
205.892646
 20
1842.293319
 30
0.0
 11
685.892646
 21
1842.293319
 31
0.0
  0
LINE
  5
44
100
AcDbEntity
  8
0
100
AcDbLine
 10
685.892646
 20
842.87257
 30
0.0
 11
685.892646
 21
142.87257
 31
0.0
  0
LINE
  5
45
100
AcDbEntity
  8
0
100
AcDbLine
 10
205.892646
 20
842.87257
 30
0.0
 11
205.892646
 21
142.87257
 31
0.0
  0
LINE
  5
46
100
AcDbEntity
  8
0
100
AcDbLine
 10
2031.389366
 20
942.87257
 30
0.0
 11
2131.389366
 21
942.87257
 31
0.0
  0
LINE
  5
47
100
AcDbEntity
  8
0
100
AcDbLine
 10
1531.389366
 20
842.87257
 30
0.0
 11
2131.389366
 21
842.87257
 31
0.0
  0
LINE
  5
48
100
AcDbEntity
  8
0
100
AcDbLine
 10
1556.389366
 20
42.87257
 30
0.0
 11
1586.389366
 21
42.87257
 31
0.0
  0
LINE
  5
49
100
AcDbEntity
  8
0
100
AcDbLine
 10
205.892646
 20
142.87257
 30
0.0
 11
255.892646
 21
142.87257
 31
0.0
  0
LINE
  5
4A
100
AcDbEntity
  8
0
100
AcDbLine
 10
1541.389366
 20
142.87257
 30
0.0
 11
2128.389366
 21
142.87257
 31
0.0
  0
LINE
  5
4B
100
AcDbEntity
  8
0
100
AcDbLine
 10
205.892646
 20
817.87257
 30
0.0
 11
685.892646
 21
817.87257
 31
0.0
  0
LINE
  5
4C
100
AcDbEntity
  8
0
100
AcDbLine
 10
1531.389366
 20
817.87257
 30
0.0
 11
2131.389366
 21
817.87257
 31
0.0
  0
LINE
  5
4D
100
AcDbEntity
  8
0
100
AcDbLine
 10
255.892646
 20
572.87257
 30
0.0
 11
255.892646
 21
142.87257
 31
0.0
  0
LINE
  5
4E
100
AcDbEntity
  8
0
100
AcDbLine
 10
635.892646
 20
572.87257
 30
0.0
 11
635.892646
 21
142.87257
 31
0.0
  0
LINE
  5
4F
100
AcDbEntity
  8
0
100
AcDbLine
 10
245.892646
 20
942.87257
 30
0.0
 11
245.892646
 21
842.87257
 31
0.0
  0
LINE
  5
50
100
AcDbEntity
  8
0
100
AcDbLine
 10
645.892646
 20
942.87257
 30
0.0
 11
645.892646
 21
842.87257
 31
0.0
  0
LINE
  5
52
100
AcDbEntity
  8
0
100
AcDbLine
 10
240.892646
 20
812.87257
 30
0.0
 11
650.892646
 21
812.87257
 31
0.0
  0
LINE
  5
53
100
AcDbEntity
  8
0
100
AcDbLine
 10
240.892646
 20
572.87257
 30
0.0
 11
650.892646
 21
572.87257
 31
0.0
  0
LINE
  5
57
100
AcDbEntity
  8
0
100
AcDbLine
 10
240.892646
 20
817.87257
 30
0.0
 11
240.892646
 21
572.87257
 31
0.0
  0
LINE
  5
58
100
AcDbEntity
  8
0
100
AcDbLine
 10
650.892646
 20
817.87257
 30
0.0
 11
650.892646
 21
572.87257
 31
0.0
  0
LINE
  5
59
100
AcDbEntity
  8
0
100
AcDbLine
 10
255.892646
 20
567.87257
 30
0.0
 11
635.892646
 21
567.87257
 31
0.0
  0
LINE
  5
5A
100
AcDbEntity
  8
0
100
AcDbLine
 10
270.892646
 20
782.87257
 30
0.0
 11
270.892646
 21
602.87257
 31
0.0
  0
LINE
  5
5B
100
AcDbEntity
  8
0
100
AcDbLine
 10
620.892646
 20
782.87257
 30
0.0
 11
620.892646
 21
602.87257
 31
0.0
  0
LINE
  5
5C
100
AcDbEntity
  8
0
100
AcDbLine
 10
270.892646
 20
602.87257
 30
0.0
 11
620.892646
 21
602.87257
 31
0.0
  0
LINE
  5
5D
100
AcDbEntity
  8
0
100
AcDbLine
 10
270.892646
 20
782.87257
 30
0.0
 11
620.892646
 21
782.87257
 31
0.0
  0
LINE
  5
5E
100
AcDbEntity
  8
0
100
AcDbLine
 10
335.892646
 20
942.87257
 30
0.0
 11
335.892646
 21
842.87257
 31
0.0
  0
LINE
  5
5F
100
AcDbEntity
  8
0
100
AcDbLine
 10
555.892646
 20
942.87257
 30
0.0
 11
555.892646
 21
842.87257
 31
0.0
  0
LINE
  5
60
100
AcDbEntity
  8
0
  6
HIDDEN2
100
AcDbLine
 10
2031.389366
 20
942.87257
 30
0.0
 11
2031.389366
 21
697.87257
 31
0.0
  0
CIRCLE
  5
61
100
AcDbEntity
  8
0
100
AcDbCircle
 10
229.14446
 20
896.314426
 30
0.0
 40
15.0
  0
LINE
  5
70
100
AcDbEntity
  8
0
100
AcDbLine
 10
215.892646
 20
62.87257
 30
0.0
 11
215.892646
 21
42.87257
 31
0.0
  0
LINE
  5
71
100
AcDbEntity
  8
0
100
AcDbLine
 10
245.892646
 20
62.87257
 30
0.0
 11
245.892646
 21
42.87257
 31
0.0
  0
LINE
  5
72
100
AcDbEntity
  8
0
100
AcDbLine
 10
645.892646
 20
62.87257
 30
0.0
 11
645.892646
 21
42.87257
 31
0.0
  0
LINE
  5
73
100
AcDbEntity
  8
0
100
AcDbLine
 10
675.892646
 20
62.87257
 30
0.0
 11
675.892646
 21
42.87257
 31
0.0
  0
LINE
  5
74
100
AcDbEntity
  8
0
100
AcDbLine
 10
215.892646
 20
62.87257
 30
0.0
 11
245.892646
 21
62.87257
 31
0.0
  0
LINE
  5
75
100
AcDbEntity
  8
0
100
AcDbLine
 10
210.892646
 20
142.87257
 30
0.0
 11
215.892646
 21
62.87257
 31
0.0
  0
LINE
  5
76
100
AcDbEntity
  8
0
100
AcDbLine
 10
250.892646
 20
142.87257
 30
0.0
 11
245.892646
 21
62.87257
 31
0.0
  0
LINE
  5
77
100
AcDbEntity
  8
0
100
AcDbLine
 10
640.892646
 20
142.87257
 30
0.0
 11
645.892646
 21
62.87257
 31
0.0
  0
LINE
  5
78
100
AcDbEntity
  8
0
100
AcDbLine
 10
680.892646
 20
142.87257
 30
0.0
 11
675.892646
 21
62.87257
 31
0.0
  0
LINE
  5
79
100
AcDbEntity
  8
0
100
AcDbLine
 10
645.892646
 20
62.87257
 30
0.0
 11
675.892646
 21
62.87257
 31
0.0
  0
LINE
  5
7B
100
AcDbEntity
  8
0
100
AcDbLine
 10
395.892646
 20
892.87257
 30
0.0
 11
495.892646
 21
892.87257
 31
0.0
  0
LINE
  5
7C
100
AcDbEntity
  8
0
100
AcDbLine
 10
495.892646
 20
892.87257
 30
0.0
 11
495.892646
 21
842.87257
 31
0.0
  0
LINE
  5
7D
100
AcDbEntity
  8
0
100
AcDbLine
 10
395.892646
 20
892.87257
 30
0.0
 11
395.892646
 21
842.87257
 31
0.0
  0
LINE
  5
7E
100
AcDbEntity
  8
0
100
AcDbLine
 10
418.392646
 20
882.87257
 30
0.0
 11
473.392646
 21
882.87257
 31
0.0
  0
LINE
  5
7F
100
AcDbEntity
  8
0
100
AcDbLine
 10
473.392646
 20
882.87257
 30
0.0
 11
473.392646
 21
842.87257
 31
0.0
  0
LINE
  5
80
100
AcDbEntity
  8
0
100
AcDbLine
 10
418.392646
 20
882.87257
 30
0.0
 11
418.392646
 21
842.87257
 31
0.0
  0
LINE
  5
81
100
AcDbEntity
  8
0
100
AcDbLine
 10
448.392646
 20
882.87257
 30
0.0
 11
448.392646
 21
842.87257
 31
0.0
  0
LINE
  5
82
100
AcDbEntity
  8
0
100
AcDbLine
 10
443.392646
 20
882.87257
 30
0.0
 11
443.392646
 21
842.87257
 31
0.0
  0
LINE
  5
83
100
AcDbEntity
  8
0
100
AcDbLine
 10
270.892646
 20
752.87257
 30
0.0
 11
620.892646
 21
752.87257
 31
0.0
  0
LINE
  5
84
100
AcDbEntity
  8
0
100
AcDbLine
 10
270.892646
 20
632.87257
 30
0.0
 11
620.892646
 21
632.87257
 31
0.0
  0
LINE
  5
86
100
AcDbEntity
  8
0
100
AcDbLine
 10
385.892646
 20
720.37257
 30
0.0
 11
505.892646
 21
720.37257
 31
0.0
  0
LINE
  5
87
100
AcDbEntity
  8
0
100
AcDbLine
 10
385.892646
 20
665.37257
 30
0.0
 11
505.892646
 21
665.37257
 31
0.0
  0
LINE
  5
89
100
AcDbEntity
  8
0
100
AcDbLine
 10
505.892646
 20
720.37257
 30
0.0
 11
505.892646
 21
665.37257
 31
0.0
  0
LINE
  5
8A
100
AcDbEntity
  8
0
100
AcDbLine
 10
385.892646
 20
720.37257
 30
0.0
 11
385.892646
 21
665.37257
 31
0.0
  0
LINE
  5
8B
100
AcDbEntity
  8
0
100
AcDbLine
 10
382.892646
 20
723.37257
 30
0.0
 11
508.892646
 21
723.37257
 31
0.0
  0
LINE
  5
8C
100
AcDbEntity
  8
0
100
AcDbLine
 10
382.892646
 20
723.37257
 30
0.0
 11
382.892646
 21
662.37257
 31
0.0
  0
LINE
  5
8D
100
AcDbEntity
  8
0
100
AcDbLine
 10
382.892646
 20
662.37257
 30
0.0
 11
508.892646
 21
662.37257
 31
0.0
  0
LINE
  5
8E
100
AcDbEntity
  8
0
100
AcDbLine
 10
508.892646
 20
723.37257
 30
0.0
 11
508.892646
 21
662.37257
 31
0.0
  0
LINE
  5
8F
100
AcDbEntity
  8
0
100
AcDbLine
 10
645.892646
 20
42.87257
 30
0.0
 11
675.892646
 21
42.87257
 31
0.0
  0
CIRCLE
  5
90
100
AcDbEntity
  8
0
100
AcDbCircle
 10
321.826986
 20
675.730094
 30
0.0
 40
7.5
  0
LINE
  5
91
100
AcDbEntity
  8
0
100
AcDbLine
 10
564.069012
 20
712.173481
 30
0.0
 11
564.069012
 21
672.173481
 31
0.0
  0
LINE
  5
92
100
AcDbEntity
  8
0
100
AcDbLine
 10
594.069012
 20
712.173481
 30
0.0
 11
594.069012
 21
672.173481
 31
0.0
  0
LINE
  5
93
100
AcDbEntity
  8
0
100
AcDbLine
 10
564.069012
 20
712.173481
 30
0.0
 11
594.069012
 21
712.173481
 31
0.0
  0
LINE
  5
94
100
AcDbEntity
  8
0
100
AcDbLine
 10
564.069012
 20
672.173481
 30
0.0
 11
594.069012
 21
672.173481
 31
0.0
  0
LINE
  5
95
100
AcDbEntity
  8
0
100
AcDbLine
 10
567.069012
 20
709.173481
 30
0.0
 11
567.069012
 21
675.173481
 31
0.0
  0
LINE
  5
96
100
AcDbEntity
  8
0
100
AcDbLine
 10
591.069012
 20
709.173481
 30
0.0
 11
591.069012
 21
675.173481
 31
0.0
  0
LINE
  5
97
100
AcDbEntity
  8
0
100
AcDbLine
 10
567.069012
 20
709.173481
 30
0.0
 11
591.069012
 21
709.173481
 31
0.0
  0
LINE
  5
98
100
AcDbEntity
  8
0
100
AcDbLine
 10
567.069012
 20
675.173481
 30
0.0
 11
591.069012
 21
675.173481
 31
0.0
  0
LINE
  5
99
100
AcDbEntity
  8
0
100
AcDbLine
 10
567.069012
 20
694.173481
 30
0.0
 11
591.069012
 21
694.173481
 31
0.0
  0
LINE
  5
9B
100
AcDbEntity
  8
0
100
AcDbLine
 10
255.892646
 20
242.87257
 30
0.0
 11
635.892646
 21
242.87257
 31
0.0
  0
LINE
  5
9C
100
AcDbEntity
  8
0
100
AcDbLine
 10
635.892646
 20
142.87257
 30
0.0
 11
685.892646
 21
142.87257
 31
0.0
  0
LINE
  5
9F
100
AcDbEntity
  8
0
100
AcDbLine
 10
205.892646
 20
1742.293319
 30
0.0
 11
685.892646
 21
1742.293319
 31
0.0
  0
LINE
  5
A2
100
AcDbEntity
  8
0
100
AcDbLine
 10
265.892646
 20
1372.293319
 30
0.0
 11
625.892646
 21
1372.293319
 31
0.0
  0
LINE
  5
A5
100
AcDbEntity
  8
0
100
AcDbLine
 10
245.892646
 20
1842.293319
 30
0.0
 11
245.892646
 21
1742.293319
 31
0.0
  0
LINE
  5
A6
100
AcDbEntity
  8
0
100
AcDbLine
 10
645.892646
 20
1842.293319
 30
0.0
 11
645.892646
 21
1742.293319
 31
0.0
  0
LINE
  5
A7
100
AcDbEntity
  8
0
100
AcDbLine
 10
335.892646
 20
1842.293319
 30
0.0
 11
335.892646
 21
1742.293319
 31
0.0
  0
LINE
  5
A8
100
AcDbEntity
  8
0
100
AcDbLine
 10
555.892646
 20
1842.293319
 30
0.0
 11
555.892646
 21
1742.293319
 31
0.0
  0
LWPOLYLINE
  5
A9
100
AcDbEntity
  8
0
100
AcDbPolyline
 90
        4
 70
     1
 43
0.0
 10
223.82135
 20
1814.097558
 10
243.831464
 20
1814.097558
 10
243.831464
 20
1772.570485
 10
223.82135
 20
1772.570485
  0
LINE
  5
AF
100
AcDbEntity
  8
0
100
AcDbLine
 10
1556.389366
 20
62.87257
 30
0.0
 11
1556.389366
 21
42.87257
 31
0.0
  0
LINE
  5
B0
100
AcDbEntity
  8
0
100
AcDbLine
 10
1586.389366
 20
62.87257
 30
0.0
 11
1586.389366
 21
42.87257
 31
0.0
  0
LINE
  5
B1
100
AcDbEntity
  8
0
100
AcDbLine
 10
2081.389366
 20
62.87257
 30
0.0
 11
2081.389366
 21
42.87257
 31
0.0
  0
LINE
  5
B2
100
AcDbEntity
  8
0
100
AcDbLine
 10
2111.389366
 20
62.87257
 30
0.0
 11
2111.389366
 21
42.87257
 31
0.0
  0
LINE
  5
B3
100
AcDbEntity
  8
0
100
AcDbLine
 10
1556.389366
 20
62.87257
 30
0.0
 11
1586.389366
 21
62.87257
 31
0.0
  0
LINE
  5
B4
100
AcDbEntity
  8
0
100
AcDbLine
 10
1551.389366
 20
142.87257
 30
0.0
 11
1556.389366
 21
62.87257
 31
0.0
  0
LINE
  5
B5
100
AcDbEntity
  8
0
100
AcDbLine
 10
1591.389366
 20
142.87257
 30
0.0
 11
1586.389366
 21
62.87257
 31
0.0
  0
LINE
  5
B6
100
AcDbEntity
  8
0
100
AcDbLine
 10
2076.389366
 20
142.87257
 30
0.0
 11
2081.389366
 21
62.87257
 31
0.0
  0
LINE
  5
B7
100
AcDbEntity
  8
0
100
AcDbLine
 10
2116.389366
 20
142.87257
 30
0.0
 11
2111.389366
 21
62.87257
 31
0.0
  0
LINE
  5
B8
100
AcDbEntity
  8
0
100
AcDbLine
 10
2081.389366
 20
62.87257
 30
0.0
 11
2111.389366
 21
62.87257
 31
0.0
  0
LINE
  5
B9
100
AcDbEntity
  8
0
100
AcDbLine
 10
2081.389366
 20
42.87257
 30
0.0
 11
2111.389366
 21
42.87257
 31
0.0
  0
LINE
  5
BA
100
AcDbEntity
  8
0
100
AcDbLine
 10
1541.389366
 20
817.87257
 30
0.0
 11
1541.389366
 21
142.87257
 31
0.0
  0
LINE
  5
BB
100
AcDbEntity
  8
0
100
AcDbLine
 10
473.392646
 20
1742.293319
 30
0.0
 11
473.392646
 21
1712.293319
 31
0.0
  0
LINE
  5
BC
100
AcDbEntity
  8
0
100
AcDbLine
 10
418.392646
 20
1742.293319
 30
0.0
 11
418.392646
 21
1712.293319
 31
0.0
  0
LINE
  5
BD
100
AcDbEntity
  8
0
100
AcDbLine
 10
418.392646
 20
1712.293319
 30
0.0
 11
443.392646
 21
1712.293319
 31
0.0
  0
LINE
  5
BE
100
AcDbEntity
  8
0
100
AcDbLine
 10
448.392646
 20
1742.293319
 30
0.0
 11
448.392646
 21
1712.293319
 31
0.0
  0
LINE
  5
BF
100
AcDbEntity
  8
0
100
AcDbLine
 10
443.392646
 20
1742.293319
 30
0.0
 11
443.392646
 21
1712.293319
 31
0.0
  0
LINE
  5
C0
100
AcDbEntity
  8
0
100
AcDbLine
 10
448.392646
 20
1712.293319
 30
0.0
 11
473.392646
 21
1712.293319
 31
0.0
  0
LINE
  5
C4
100
AcDbEntity
  8
0
100
AcDbLine
 10
270.892646
 20
1382.293319
 30
0.0
 11
620.892646
 21
1382.293319
 31
0.0
  0
LINE
  5
C5
100
AcDbEntity
  8
0
100
AcDbLine
 10
270.892646
 20
1732.293319
 30
0.0
 11
408.392646
 21
1732.293319
 31
0.0
  0
LINE
  5
C6
100
AcDbEntity
  8
0
100
AcDbLine
 10
408.392646
 20
1732.293319
 30
0.0
 11
408.392646
 21
1702.293319
 31
0.0
  0
LINE
  5
C7
100
AcDbEntity
  8
0
100
AcDbLine
 10
483.392646
 20
1732.293319
 30
0.0
 11
483.392646
 21
1702.293319
 31
0.0
  0
LINE
  5
C8
100
AcDbEntity
  8
0
100
AcDbLine
 10
448.392646
 20
1702.293319
 30
0.0
 11
483.392646
 21
1702.293319
 31
0.0
  0
LINE
  5
C9
100
AcDbEntity
  8
0
100
AcDbLine
 10
408.392646
 20
1702.293319
 30
0.0
 11
483.392646
 21
1702.293319
 31
0.0
  0
LINE
  5
CB
100
AcDbEntity
  8
0
100
AcDbLine
 10
483.392646
 20
1732.293319
 30
0.0
 11
620.892646
 21
1732.293319
 31
0.0
  0
LINE
  5
CC
100
AcDbEntity
  8
0
100
AcDbLine
 10
270.892646
 20
1732.293319
 30
0.0
 11
270.892646
 21
1382.293319
 31
0.0
  0
LINE
  5
CD
100
AcDbEntity
  8
0
100
AcDbLine
 10
280.892646
 20
1732.293319
 30
0.0
 11
280.892646
 21
1382.293319
 31
0.0
  0
LINE
  5
CE
100
AcDbEntity
  8
0
100
AcDbLine
 10
290.892646
 20
1732.293319
 30
0.0
 11
290.892646
 21
1382.293319
 31
0.0
  0
LINE
  5
CF
100
AcDbEntity
  8
0
100
AcDbLine
 10
300.892646
 20
1732.293319
 30
0.0
 11
300.892646
 21
1382.293319
 31
0.0
  0
LINE
  5
D0
100
AcDbEntity
  8
0
100
AcDbLine
 10
310.892646
 20
1732.293319
 30
0.0
 11
310.892646
 21
1382.293319
 31
0.0
  0
LINE
  5
D1
100
AcDbEntity
  8
0
100
AcDbLine
 10
320.892646
 20
1732.293319
 30
0.0
 11
320.892646
 21
1382.293319
 31
0.0
  0
LINE
  5
D2
100
AcDbEntity
  8
0
100
AcDbLine
 10
330.892646
 20
1732.293319
 30
0.0
 11
330.892646
 21
1382.293319
 31
0.0
  0
LINE
  5
D3
100
AcDbEntity
  8
0
100
AcDbLine
 10
340.892646
 20
1732.293319
 30
0.0
 11
340.892646
 21
1382.293319
 31
0.0
  0
LINE
  5
D4
100
AcDbEntity
  8
0
100
AcDbLine
 10
350.892646
 20
1732.293319
 30
0.0
 11
350.892646
 21
1382.293319
 31
0.0
  0
LINE
  5
D5
100
AcDbEntity
  8
0
100
AcDbLine
 10
360.892646
 20
1732.293319
 30
0.0
 11
360.892646
 21
1382.293319
 31
0.0
  0
LINE
  5
D6
100
AcDbEntity
  8
0
100
AcDbLine
 10
370.892646
 20
1732.293319
 30
0.0
 11
370.892646
 21
1382.293319
 31
0.0
  0
LINE
  5
D7
100
AcDbEntity
  8
0
100
AcDbLine
 10
380.892646
 20
1732.293319
 30
0.0
 11
380.892646
 21
1382.293319
 31
0.0
  0
LINE
  5
D8
100
AcDbEntity
  8
0
100
AcDbLine
 10
390.892646
 20
1732.293319
 30
0.0
 11
390.892646
 21
1382.293319
 31
0.0
  0
LINE
  5
D9
100
AcDbEntity
  8
0
100
AcDbLine
 10
400.892646
 20
1732.293319
 30
0.0
 11
400.892646
 21
1382.293319
 31
0.0
  0
LINE
  5
DA
100
AcDbEntity
  8
0
100
AcDbLine
 10
410.892646
 20
1702.293319
 30
0.0
 11
410.892646
 21
1382.293319
 31
0.0
  0
LINE
  5
DB
100
AcDbEntity
  8
0
100
AcDbLine
 10
420.892646
 20
1702.293319
 30
0.0
 11
420.892646
 21
1382.293319
 31
0.0
  0
LINE
  5
DC
100
AcDbEntity
  8
0
100
AcDbLine
 10
430.892646
 20
1702.293319
 30
0.0
 11
430.892646
 21
1382.293319
 31
0.0
  0
LINE
  5
DD
100
AcDbEntity
  8
0
100
AcDbLine
 10
440.892646
 20
1702.293319
 30
0.0
 11
440.892646
 21
1382.293319
 31
0.0
  0
LINE
  5
DE
100
AcDbEntity
  8
0
100
AcDbLine
 10
450.892646
 20
1702.293319
 30
0.0
 11
450.892646
 21
1382.293319
 31
0.0
  0
LINE
  5
DF
100
AcDbEntity
  8
0
100
AcDbLine
 10
460.892646
 20
1702.293319
 30
0.0
 11
460.892646
 21
1382.293319
 31
0.0
  0
LINE
  5
E0
100
AcDbEntity
  8
0
100
AcDbLine
 10
470.892646
 20
1702.293319
 30
0.0
 11
470.892646
 21
1382.293319
 31
0.0
  0
LINE
  5
E1
100
AcDbEntity
  8
0
100
AcDbLine
 10
480.892646
 20
1702.293319
 30
0.0
 11
480.892646
 21
1382.293319
 31
0.0
  0
LINE
  5
E2
100
AcDbEntity
  8
0
100
AcDbLine
 10
490.892646
 20
1732.293319
 30
0.0
 11
490.892646
 21
1382.293319
 31
0.0
  0
LINE
  5
E3
100
AcDbEntity
  8
0
100
AcDbLine
 10
500.892646
 20
1732.293319
 30
0.0
 11
500.892646
 21
1382.293319
 31
0.0
  0
LINE
  5
E4
100
AcDbEntity
  8
0
100
AcDbLine
 10
510.892646
 20
1732.293319
 30
0.0
 11
510.892646
 21
1382.293319
 31
0.0
  0
LINE
  5
E5
100
AcDbEntity
  8
0
100
AcDbLine
 10
520.892646
 20
1732.293319
 30
0.0
 11
520.892646
 21
1382.293319
 31
0.0
  0
LINE
  5
E6
100
AcDbEntity
  8
0
100
AcDbLine
 10
530.892646
 20
1732.293319
 30
0.0
 11
530.892646
 21
1382.293319
 31
0.0
  0
LINE
  5
E7
100
AcDbEntity
  8
0
100
AcDbLine
 10
540.892646
 20
1732.293319
 30
0.0
 11
540.892646
 21
1382.293319
 31
0.0
  0
LINE
  5
E8
100
AcDbEntity
  8
0
100
AcDbLine
 10
550.892646
 20
1732.293319
 30
0.0
 11
550.892646
 21
1382.293319
 31
0.0
  0
LINE
  5
E9
100
AcDbEntity
  8
0
100
AcDbLine
 10
560.892646
 20
1732.293319
 30
0.0
 11
560.892646
 21
1382.293319
 31
0.0
  0
LINE
  5
EA
100
AcDbEntity
  8
0
100
AcDbLine
 10
570.892646
 20
1732.293319
 30
0.0
 11
570.892646
 21
1382.293319
 31
0.0
  0
LINE
  5
EB
100
AcDbEntity
  8
0
100
AcDbLine
 10
580.892646
 20
1732.293319
 30
0.0
 11
580.892646
 21
1382.293319
 31
0.0
  0
LINE
  5
EC
100
AcDbEntity
  8
0
100
AcDbLine
 10
590.892646
 20
1732.293319
 30
0.0
 11
590.892646
 21
1382.293319
 31
0.0
  0
LINE
  5
ED
100
AcDbEntity
  8
0
100
AcDbLine
 10
600.892646
 20
1732.293319
 30
0.0
 11
600.892646
 21
1382.293319
 31
0.0
  0
LINE
  5
EE
100
AcDbEntity
  8
0
100
AcDbLine
 10
610.892646
 20
1732.293319
 30
0.0
 11
610.892646
 21
1382.293319
 31
0.0
  0
LINE
  5
EF
100
AcDbEntity
  8
0
100
AcDbLine
 10
620.892646
 20
1732.293319
 30
0.0
 11
620.892646
 21
1382.293319
 31
0.0
  0
LINE
  5
F0
100
AcDbEntity
  8
0
100
AcDbLine
 10
270.892646
 20
1502.293319
 30
0.0
 11
620.892646
 21
1502.293319
 31
0.0
  0
LINE
  5
F1
100
AcDbEntity
  8
0
100
AcDbLine
 10
270.892646
 20
1612.293319
 30
0.0
 11
490.892646
 21
1612.293319
 31
0.0
  0
LINE
  5
F2
100
AcDbEntity
  8
0
100
AcDbLine
 10
483.392646
 20
1612.293319
 30
0.0
 11
620.892646
 21
1612.293319
 31
0.0
  0
LINE
  5
F3
100
AcDbEntity
  8
0
  6
HIDDEN2
100
AcDbLine
 10
2118.389366
 20
384.243603
 30
0.0
 11
2118.389366
 21
142.87257
 31
0.0
  0
LINE
  5
F4
100
AcDbEntity
  8
0
  6
HIDDEN2
100
AcDbLine
 10
2038.389366
 20
384.243603
 30
0.0
 11
2038.389366
 21
142.87257
 31
0.0
  0
LINE
  5
F5
100
AcDbEntity
  8
0
  6
HIDDEN2
100
AcDbLine
 10
2038.389366
 20
384.243603
 30
0.0
 11
2118.389366
 21
384.243603
 31
0.0
  0
LINE
  5
F7
100
AcDbEntity
  8
0
  6
HIDDEN2
100
AcDbLine
 10
1661.389366
 20
817.87257
 30
0.0
 11
1661.389366
 21
697.87257
 31
0.0
  0
LINE
  5
F8
100
AcDbEntity
  8
0
  6
HIDDEN2
100
AcDbLine
 10
1531.389366
 20
842.87257
 30
0.0
 11
1661.389366
 21
817.87257
 31
0.0
  0
LINE
  5
FA
100
AcDbEntity
  8
0
  6
HIDDEN2
100
AcDbLine
 10
1761.389366
 20
599.180871
 30
0.0
 11
1761.389366
 21
242.87257
 31
0.0
  0
LINE
  5
FC
100
AcDbEntity
  8
0
  6
HIDDEN2
100
AcDbLine
 10
2011.389366
 20
647.87257
 30
0.0
 11
2011.389366
 21
262.87257
 31
0.0
  0
LINE
  5
FF
100
AcDbEntity
  8
0
  6
HIDDEN2
100
AcDbLine
 10
2031.389366
 20
697.87257
 30
0.0
 11
2011.389366
 21
647.87257
 31
0.0
  0
LINE
  5
100
100
AcDbEntity
  8
0
  6
HIDDEN2
100
AcDbLine
 10
1761.389366
 20
242.87257
 30
0.0
 11
2011.389366
 21
262.87257
 31
0.0
  0
LINE
  5
101
100
AcDbEntity
  8
0
  6
HIDDEN2
100
AcDbLine
 10
2001.389366
 20
892.87257
 30
0.0
 11
2001.389366
 21
697.87257
 31
0.0
  0
LINE
  5
104
100
AcDbEntity
  8
0
  6
HIDDEN2
100
AcDbLine
 10
1751.389366
 20
697.87257
 30
0.0
 11
2001.389366
 21
697.87257
 31
0.0
  0
LINE
  5
105
100
AcDbEntity
  8
0
  6
HIDDEN2
100
AcDbLine
 10
1751.389366
 20
672.87257
 30
0.0
 11
2006.389366
 21
672.87257
 31
0.0
  0
LINE
  5
106
100
AcDbEntity
  8
0
  6
HIDDEN2
100
AcDbLine
 10
1751.389366
 20
697.87257
 30
0.0
 11
1751.389366
 21
672.87257
 31
0.0
  0
LINE
  5
107
100
AcDbEntity
  8
0
100
AcDbLine
 10
2001.389366
 20
892.87257
 30
0.0
 11
2031.389366
 21
892.87257
 31
0.0
  0
LINE
  5
10A
100
AcDbEntity
  8
0
  6
HIDDEN2
100
AcDbLine
 10
2006.389366
 20
887.87257
 30
0.0
 11
2006.389366
 21
672.87257
 31
0.0
  0
LINE
  5
10B
100
AcDbEntity
  8
0
100
AcDbLine
 10
2006.389366
 20
887.87257
 30
0.0
 11
2031.389366
 21
887.87257
 31
0.0
  0
LINE
  5
10C
100
AcDbEntity
  8
0
100
AcDbLine
 10
2031.389366
 20
942.87257
 30
0.0
 11
2031.389366
 21
842.87257
 31
0.0
  0
LINE
  5
10D
100
AcDbEntity
  8
0
100
AcDbLine
 10
2006.389366
 20
887.87257
 30
0.0
 11
2006.389366
 21
842.87257
 31
0.0
  0
LINE
  5
10E
100
AcDbEntity
  8
0
100
AcDbLine
 10
2001.389366
 20
892.87257
 30
0.0
 11
2001.389366
 21
842.87257
 31
0.0
  0
LINE
  5
145
100
AcDbEntity
  8
0
100
AcDbLine
 10
229.82135
 20
1772.570485
 30
0.0
 11
229.82135
 21
1538.606655
 31
0.0
  0
LINE
  5
146
100
AcDbEntity
  8
0
100
AcDbLine
 10
237.82135
 20
1772.570485
 30
0.0
 11
237.82135
 21
1538.860295
 31
0.0
  0
CIRCLE
  5
147
100
AcDbEntity
  8
0
100
AcDbCircle
 10
234.279457
 20
1524.284459
 30
0.0
 40
15.0
  0
ARC
  5
152
100
AcDbEntity
  8
0
100
AcDbCircle
 10
445.892646
 20
467.87257
 30
0.0
 40
25.0
100
AcDbArc
 50
2.799337
 51
28.614242
  0
ARC
  5
153
100
AcDbEntity
  8
0
100
AcDbCircle
 10
445.892646
 20
467.87257
 30
0.0
 40
30.0
100
AcDbArc
 50
3.309939
 51
3.489723
  0
CIRCLE
  5
155
100
AcDbEntity
  8
0
100
AcDbCircle
 10
590.892646
 20
467.87257
 30
0.0
 40
21.0
  0
CIRCLE
  5
158
100
AcDbEntity
  8
0
100
AcDbCircle
 10
475.892646
 20
444.604737
 30
0.0
 40
21.0
  0
LINE
  5
15C
100
AcDbEntity
  8
0
  6
HIDDEN2
100
AcDbLine
 10
1661.389366
 20
697.87257
 30
0.0
 11
1761.389366
 21
599.180871
 31
0.0
  0
LINE
  5
15D
100
AcDbEntity
  8
0
100
AcDbLine
 10
2128.389366
 20
817.87257
 30
0.0
 11
2128.389366
 21
142.87257
 31
0.0
  0
ARC
  5
160
100
AcDbEntity
  8
0
  6
HIDDEN2
100
AcDbCircle
 10
1661.389366
 20
467.87257
 30
0.0
 40
21.0
100
AcDbArc
 50
90.0
 51
270.0
  0
LINE
  5
161
100
AcDbEntity
  8
0
  6
HIDDEN2
100
AcDbLine
 10
1661.389366
 20
488.87257
 30
0.0
 11
1761.389366
 21
488.87257
 31
0.0
  0
LINE
  5
163
100
AcDbEntity
  8
0
  6
HIDDEN2
100
AcDbLine
 10
1661.389366
 20
446.87257
 30
0.0
 11
1761.389366
 21
446.87257
 31
0.0
  0
LINE
  5
164
100
AcDbEntity
  8
0
  6
HIDDEN2
100
AcDbLine
 10
1661.389366
 20
488.87257
 30
0.0
 11
1629.313521
 21
480.157551
 31
0.0
  0
LINE
  5
166
100
AcDbEntity
  8
0
  6
HIDDEN2
100
AcDbLine
 10
1672.401553
 20
448.341943
 30
0.0
 11
1629.103336
 21
439.626924
 31
0.0
  0
LINE
  5
167
100
AcDbEntity
  8
0
  6
HIDDEN2
100
AcDbLine
 10
1687.014425
 20
488.87257
 30
0.0
 11
1687.014425
 21
446.87257
 31
0.0
  0
LINE
  5
16B
100
AcDbEntity
  8
0
100
AcDbLine
 10
590.892646
 20
488.87257
 30
0.0
 11
485.718566
 21
467.592805
 31
0.0
  0
LINE
  5
16C
100
AcDbEntity
  8
0
100
AcDbLine
 10
599.22169
 20
447.706723
 30
0.0
 11
492.779831
 21
426.170449
 31
0.0
  0
CIRCLE
  5
16F
100
AcDbEntity
  8
0
100
AcDbCircle
 10
445.892646
 20
267.87257
 30
0.0
 40
25.0
  0
CIRCLE
  5
170
100
AcDbEntity
  8
0
100
AcDbCircle
 10
445.892646
 20
267.87257
 30
0.0
 40
21.0
  0
CIRCLE
  5
173
100
AcDbEntity
  8
0
100
AcDbCircle
 10
475.892646
 20
444.604737
 30
0.0
 40
25.0
  0
INSERT
  5
19A
100
AcDbEntity
  8
0
100
AcDbBlockReference
  2
A$C3D4A0DE5
 10
1632.318477
 20
242.707246
 30
0.0
  0
INSERT
  5
19B
100
AcDbEntity
  8
0
100
AcDbBlockReference
  2
A$C3D4A0DE5
 10
1499.35857
 20
434.957989
 30
0.0
  0
LINE
  5
19E
100
AcDbEntity
  8
0
  6
HIDDEN2
100
AcDbLine
 10
1761.389366
 20
568.494588
 30
0.0
 11
2011.389366
 21
568.494588
 31
0.0
  0
LINE
  5
19F
100
AcDbEntity
  8
0
  6
HIDDEN2
100
AcDbLine
 10
1761.389366
 20
498.494588
 30
0.0
 11
2011.389366
 21
498.494588
 31
0.0
  0
ARC
  5
1A3
100
AcDbEntity
  8
0
100
AcDbCircle
 10
545.892646
 20
533.494588
 30
0.0
 40
35.0
100
AcDbArc
 50
100.81808
 51
79.18192
  0
ARC
  5
1A4
100
AcDbEntity
  8
0
100
AcDbCircle
 10
345.892646
 20
533.494588
 30
0.0
 40
35.0
100
AcDbArc
 50
100.81808
 51
79.18192
  0
INSERT
  5
1BA
100
AcDbEntity
  8
0
100
AcDbBlockReference
  2
A$C061D45EC
 10
355.55641
 20
292.710528
 30
0.0
  0
INSERT
  5
1BB
100
AcDbEntity
  8
0
100
AcDbBlockReference
  2
A$C061D45EC
 10
386.081895
 20
469.352492
 30
0.0
  0
ARC
  5
1BE
100
AcDbEntity
  8
0
100
AcDbCircle
 10
445.892646
 20
467.87257
 30
0.0
 40
30.0
100
AcDbArc
 50
147.827577
 51
281.096147
  0
ARC
  5
1BF
100
AcDbEntity
  8
0
100
AcDbCircle
 10
445.892646
 20
467.87257
 30
0.0
 40
25.0
100
AcDbArc
 50
140.285484
 51
281.606749
  0
ARC
  5
1C2
100
AcDbEntity
  8
0
100
AcDbCircle
 10
445.892646
 20
467.87257
 30
0.0
 40
30.0
100
AcDbArc
 50
23.089601
 51
23.521411
  0
ARC
  5
1C5
100
AcDbEntity
  8
0
100
AcDbCircle
 10
445.892646
 20
467.87257
 30
0.0
 40
25.0
100
AcDbArc
 50
39.072568
 51
127.680611
  0
ARC
  5
1C6
100
AcDbEntity
  8
0
100
AcDbCircle
 10
445.892646
 20
467.87257
 30
0.0
 40
30.0
100
AcDbArc
 50
31.685309
 51
138.736316
  0
LINE
  5
1C8
100
AcDbEntity
  8
0
100
AcDbLine
 10
1462.546431
 20
1805.25039
 30
0.0
 11
2163.263294
 21
1805.25039
 31
0.0
  0
LINE
  5
1CB
100
AcDbEntity
  8
0
100
AcDbLine
 10
1462.546431
 20
1755.25039
 30
0.0
 11
2163.263294
 21
1755.25039
 31
0.0
  0
LINE
  5
1CC
100
AcDbEntity
  8
0
100
AcDbLine
 10
1462.546431
 20
1705.25039
 30
0.0
 11
2163.263294
 21
1705.25039
 31
0.0
  0
LINE
  5
1CD
100
AcDbEntity
  8
0
100
AcDbLine
 10
1462.546431
 20
1655.25039
 30
0.0
 11
2163.263294
 21
1655.25039
 31
0.0
  0
LINE
  5
1CE
100
AcDbEntity
  8
0
100
AcDbLine
 10
1462.546431
 20
1605.25039
 30
0.0
 11
2163.263294
 21
1605.25039
 31
0.0
  0
LINE
  5
1CF
100
AcDbEntity
  8
0
100
AcDbLine
 10
1462.546431
 20
1555.25039
 30
0.0
 11
2163.263294
 21
1555.25039
 31
0.0
  0
LINE
  5
1D0
100
AcDbEntity
  8
0
100
AcDbLine
 10
1462.546431
 20
1505.25039
 30
0.0
 11
2163.263294
 21
1505.25039
 31
0.0
  0
LINE
  5
1D1
100
AcDbEntity
  8
0
100
AcDbLine
 10
1462.546431
 20
1455.25039
 30
0.0
 11
2163.263294
 21
1455.25039
 31
0.0
  0
LINE
  5
1D2
100
AcDbEntity
  8
0
100
AcDbLine
 10
1462.546431
 20
1405.25039
 30
0.0
 11
2163.263294
 21
1405.25039
 31
0.0
  0
LINE
  5
1D4
100
AcDbEntity
  8
0
100
AcDbLine
 10
1462.546431
 20
1805.25039
 30
0.0
 11
1462.546431
 21
1405.25039
 31
0.0
  0
LINE
  5
30F
100
AcDbEntity
  8
0
100
AcDbLine
 10
265.892646
 20
1742.293319
 30
0.0
 11
265.892646
 21
1372.293319
 31
0.0
  0
LINE
  5
310
100
AcDbEntity
  8
0
100
AcDbLine
 10
625.892646
 20
1742.293319
 30
0.0
 11
625.892646
 21
1372.293319
 31
0.0
  0
DIMENSION
  5
554
100
AcDbEntity
  8
0
  6
DASHED2
100
AcDbDimension
  2
*D3
 10
645.892646
 20
1883.244071
 30
0.0
 11
445.892646
 21
1895.348448
 31
0.0
 70
    32
  3
STANDARD_WS
100
AcDbAlignedDimension
 13
245.892646
 23
1856.671697
 33
0.0
 14
645.892646
 24
1855.608798
 34
0.0
100
AcDbRotatedDimension
  0
DIMENSION
  5
5B1
100
AcDbEntity
  8
0
  6
DASHED2
100
AcDbDimension
  2
*D4
 10
625.892646
 20
1310.398016
 30
0.0
 11
445.892646
 21
1322.502393
 31
0.0
 70
    32
  3
STANDARD_WS
100
AcDbAlignedDimension
 13
265.892646
 23
1349.297684
 33
0.0
 14
625.892646
 24
1346.143654
 34
0.0
100
AcDbRotatedDimension
  0
DIMENSION
  5
5DF
100
AcDbEntity
  8
0
  6
DASHED2
100
AcDbDimension
  2
*D5
 10
760.408747
 20
1742.293319
 30
0.0
 11
748.30437
 21
1792.293319
 31
0.0
 70
    32
  3
STANDARD_WS
100
AcDbAlignedDimension
 13
708.7622
 23
1842.293319
 33
0.0
 14
707.266252
 24
1742.293319
 34
0.0
 50
90.0
100
AcDbRotatedDimension
  0
DIMENSION
  5
5EB
100
AcDbEntity
  8
0
  6
DASHED2
100
AcDbDimension
  2
*D6
 10
760.408747
 20
1372.293319
 30
0.0
 11
748.30437
 21
1557.293319
 31
0.0
 70
    32
  3
STANDARD_WS
100
AcDbAlignedDimension
 13
707.266252
 23
1742.293319
 33
0.0
 14
663.883778
 24
1372.293319
 34
0.0
 50
90.0
100
AcDbRotatedDimension
1001
ACAD
1000
DSTYLE
1002
{
1070
    75
1070
     1
1070
   287
1070
     4
1002
}
  0
DIMENSION
  5
5F7
100
AcDbEntity
  8
0
  6
DASHED2
100
AcDbDimension
  2
*D7
 10
760.408747
 20
1242.293319
 30
0.0
 11
748.30437
 21
1307.293319
 31
0.0
 70
    32
  3
STANDARD_WS
100
AcDbAlignedDimension
 13
663.883778
 23
1372.293319
 33
0.0
 14
713.250046
 24
1242.293319
 34
0.0
 50
90.0
100
AcDbRotatedDimension
1001
ACAD
1000
DSTYLE
1002
{
1070
    75
1070
     1
1070
   287
1070
     4
1002
}
  0
DIMENSION
  5
642
100
AcDbEntity
  8
0
  6
DASHED2
100
AcDbDimension
  2
*D8
 10
820.958247
 20
1242.293319
 30
0.0
 11
808.85387
 21
1542.293319
 31
0.0
 70
    32
  3
STANDARD_WS
100
AcDbAlignedDimension
 13
710.258149
 23
1842.293319
 33
0.0
 14
711.754097
 24
1242.293319
 34
0.0
 50
90.0
100
AcDbRotatedDimension
  0
DIMENSION
  5
68F
100
AcDbEntity
  8
0
  6
DASHED2
100
AcDbDimension
  2
*D9
 10
2031.389366
 20
1005.968677
 30
0.0
 11
2081.389366
 21
1018.073054
 31
0.0
 12
95.429847
 22
0.0
 32
0.0
 70
    32
  3
STANDARD_WS
100
AcDbAlignedDimension
 13
2131.389366
 23
960.332945
 33
0.0
 14
2031.389366
 24
960.332945
 34
0.0
100
AcDbRotatedDimension
  0
DIMENSION
  5
69B
100
AcDbEntity
  8
0
  6
DASHED2
100
AcDbDimension
  2
*D10
 10
1661.389366
 20
1005.968677
 30
0.0
 11
1846.389366
 21
1018.073054
 31
0.0
 12
95.429847
 22
0.0
 32
0.0
 70
    32
  3
STANDARD_WS
100
AcDbAlignedDimension
 13
2031.389366
 23
960.332945
 33
0.0
 14
1661.389366
 24
866.526158
 34
0.0
100
AcDbRotatedDimension
1001
ACAD
1000
DSTYLE
1002
{
1070
    75
1070
     1
1070
   287
1070
     4
1002
}
  0
DIMENSION
  5
6A7
100
AcDbEntity
  8
0
  6
DASHED2
100
AcDbDimension
  2
*D11
 10
1531.389366
 20
1005.968677
 30
0.0
 11
1596.389366
 21
1018.073054
 31
0.0
 12
95.429847
 22
0.0
 32
0.0
 70
    32
  3
STANDARD_WS
100
AcDbAlignedDimension
 13
1661.389366
 23
866.526158
 33
0.0
 14
1531.389366
 24
869.061477
 34
0.0
100
AcDbRotatedDimension
1001
ACAD
1000
DSTYLE
1002
{
1070
    75
1070
     1
1070
   287
1070
     4
1002
}
  0
DIMENSION
  5
71F
100
AcDbEntity
  8
0
  6
DASHED2
100
AcDbDimension
  2
*D12
 10
645.892646
 20
991.607369
 30
0.0
 11
445.892646
 21
1003.711746
 31
0.0
 70
    32
  3
STANDARD_WS
100
AcDbAlignedDimension
 13
245.892646
 23
958.060852
 33
0.0
 14
645.892646
 24
958.992702
 34
0.0
100
AcDbRotatedDimension
  0
DIMENSION
  5
786
100
AcDbEntity
  8
0
  6
DASHED2
100
AcDbDimension
  2
*D13
 10
804.391725
 20
142.87257
 30
0.0
 11
792.287348
 21
92.87257
 31
0.0
 70
    32
  3
STANDARD_WS
100
AcDbAlignedDimension
 13
716.494493
 23
42.87257
 33
0.0
 14
718.587286
 24
142.87257
 34
0.0
 50
90.0
100
AcDbRotatedDimension
  0
DIMENSION
  5
792
100
AcDbEntity
  8
0
  6
DASHED2
100
AcDbDimension
  2
*D14
 10
804.391725
 20
842.87257
 30
0.0
 11
792.287348
 21
492.87257
 31
0.0
 70
    32
  3
STANDARD_WS
100
AcDbAlignedDimension
 13
718.587286
 23
142.87257
 33
0.0
 14
724.865657
 24
842.87257
 34
0.0
 50
90.0
100
AcDbRotatedDimension
1001
ACAD
1000
DSTYLE
1002
{
1070
    75
1070
     1
1070
   287
1070
     4
1002
}
  0
DIMENSION
  5
79E
100
AcDbEntity
  8
0
  6
DASHED2
100
AcDbDimension
  2
*D15
 10
804.391725
 20
942.87257
 30
0.0
 11
792.287348
 21
892.87257
 31
0.0
 70
    32
  3
STANDARD_WS
100
AcDbAlignedDimension
 13
724.865657
 23
842.87257
 33
0.0
 14
674.63867
 24
942.87257
 34
0.0
 50
90.0
100
AcDbRotatedDimension
1001
ACAD
1000
DSTYLE
1002
{
1070
    75
1070
     1
1070
   287
1070
     4
1002
}
  0
DIMENSION
  5
7E9
100
AcDbEntity
  8
0
  6
DASHED2
100
AcDbDimension
  2
*D16
 10
881.824999
 20
42.87257
 30
0.0
 11
869.720622
 21
492.87257
 31
0.0
 70
    32
  3
STANDARD_WS
100
AcDbAlignedDimension
 13
672.545877
 23
942.87257
 33
0.0
 14
803.756568
 24
42.87257
 34
0.0
 50
90.0
100
AcDbRotatedDimension
  0
LEADER
  5
87B
100
AcDbEntity
  8
0
100
AcDbLeader
  3
STANDARD_WS
 73
     0
 74
     0
 75
     1
 40
27.272727
 41
204.090909
 76
     3
 10
444.22003
 20
253.699928
 30
0.0
 10
399.951939
 20
150.457535
 30
0.0
 10
408.369448
 20
150.457535
 30
0.0
 77
   256
340
87C
213
-3.854215968480104
223
0.0
233
0.0
  0
MTEXT
  5
87C
102
{ACAD_REACTORS
330
87B
102
}
100
AcDbEntity
  8
0
100
AcDbMText
 10
414.328041
 20
166.198276
 30
0.0
 40
20.0
 41
0.0
 71
     4
 72
     1
  1
\A1;\fMS UI Gothic|b0|i0|c128|p50;排水バルブ　４０A
  0
LEADER
  5
87D
100
AcDbEntity
  8
0
100
AcDbLeader
  3
STANDARD_WS
 73
     0
 74
     0
 75
     1
 40
27.272727
 41
204.090909
 76
     3
 10
473.593264
 20
434.538967
 30
0.0
 10
395.875451
 20
360.821279
 30
0.0
 10
404.29296
 20
360.821279
 30
0.0
 77
   256
340
87E
213
-22.35455120475467
223
0.0
233
0.0
  0
MTEXT
  5
87E
102
{ACAD_REACTORS
330
87D
102
}
100
AcDbEntity
  8
0
100
AcDbMText
 10
428.751888
 20
376.56202
 30
0.0
 40
20.0
 41
0.0
 71
     4
 72
     1
  1
\A1;\fMS UI Gothic|b0|i0|c128|p50;排油バルブ　３２A
  0
LEADER
  5
87F
100
AcDbEntity
  8
0
100
AcDbLeader
  3
STANDARD_WS
 73
     0
 40
26.25
 41
200.909091
 76
     2
 10
397.625134
 20
688.515047
 30
0.0
 10
153.921268
 20
642.797329
 30
0.0
 77
   256
340
880
213
-5.39484980679046
223
-1.210140978913614
233
0.0
  0
MTEXT
  5
880
102
{ACAD_REACTORS
330
87F
102
}
100
AcDbEntity
  8
0
100
AcDbMText
 10
157.211741
 20
659.236847
 30
0.0
 40
20.0
 41
0.0
 71
     6
 72
     1
  1
\A1;\fMS UI Gothic|b0|i0|c128|p50;コントロールパネル
  0
LEADER
  5
881
100
AcDbEntity
  8
0
100
AcDbLeader
  3
STANDARD_WS
 73
     0
 40
26.363636
 41
144.090909
 76
     2
 10
429.19124
 20
452.366612
 30
0.0
 10
182.02839
 20
405.442285
 30
0.0
 77
   256
340
882
213
2.83888350802843
223
-4.4714176621315
233
0.0
  0
MTEXT
  5
882
102
{ACAD_REACTORS
330
881
102
}
100
AcDbEntity
  8
0
100
AcDbMText
 10
177.08513
 20
425.199898
 30
0.0
 40
20.0
 41
0.0
 71
     6
 72
     1
  1
\A1;\fMS UI Gothic|b0|i0|c128|p50;水位確認窓
  0
LEADER
  5
883
100
AcDbEntity
  8
0
100
AcDbLeader
  3
STANDARD_WS
 73
     0
 75
     1
 40
26.931818
 41
123.068182
 76
     3
 10
1781.179841
 20
533.094601
 30
0.0
 10
1520.130461
 20
612.572489
 30
0.0
 10
1511.712953
 20
612.572489
 30
0.0
 77
   256
340
884
213
0.3645615571092549
223
-0.8764600963238535
233
0.0
  0
MTEXT
  5
884
102
{ACAD_REACTORS
330
883
102
}
100
AcDbEntity
  8
0
100
AcDbMText
 10
1509.244014
 20
629.019235
 30
0.0
 40
20.0
 41
0.0
 71
     6
 72
     1
  1
\A1;\fMS UI Gothic|b0|i0|c128|p50;空冷パイプ
  0
LWPOLYLINE
  5
885
100
AcDbEntity
  8
0
100
AcDbPolyline
 90
        4
 70
     1
 43
0.0
 10
1531.776646
 20
810.201962
 10
1541.776192
 20
810.201962
 10
1541.776192
 20
584.138563
 10
1531.776646
 20
584.138563
  0
LWPOLYLINE
  5
886
100
AcDbEntity
  8
0
  6
HIDDEN2
100
AcDbPolyline
 90
        4
 70
     1
 43
0.0
 10
1544.055244
 20
737.579029
 10
1589.490065
 20
737.579029
 10
1589.490065
 20
646.780227
 10
1544.055244
 20
646.780227
  0
LEADER
  5
887
100
AcDbEntity
  8
0
100
AcDbLeader
  3
STANDARD_WS
 73
     0
 40
26.477273
 41
84.318182
 76
     2
 10
2075.490429
 20
166.308367
 30
0.0
 10
1995.257741
 20
153.069731
 30
0.0
 77
   256
340
888
213
-1.695058220251894
223
0.0
233
0.0
  0
MTEXT
  5
888
102
{ACAD_REACTORS
330
887
102
}
100
AcDbEntity
  8
0
100
AcDbMText
 10
1994.848422
 20
168.412744
 30
0.0
 40
20.0
 41
0.0
 71
     6
 72
     1
  1
\A1;\fMS UI Gothic|b0|i0|c128|p50;制御盤
  0
LEADER
  5
889
100
AcDbEntity
  8
0
100
AcDbLeader
  3
STANDARD_WS
 73
     0
 74
     0
 40
24.545455
 41
83.977273
 76
     3
 10
1796.210119
 20
681.455523
 30
0.0
 10
1841.367795
 20
621.29223
 30
0.0
 10
1850.630901
 20
621.29223
 30
0.0
 77
   256
340
88A
213
0.0
223
0.4932650972627926
233
0.0
  0
MTEXT
  5
88A
102
{ACAD_REACTORS
330
889
102
}
100
AcDbEntity
  8
0
100
AcDbMText
 10
1852.735278
 20
635.176069
 30
0.0
 40
20.0
 41
0.0
 71
     4
 72
     1
  1
\A1;\fMS UI Gothic|b0|i0|c128|p50;ヒーター
  0
DIMENSION
  5
897
100
AcDbEntity
  8
0
  6
DASHED2
100
AcDbDimension
  2
*D17
 10
1880.597989
 20
817.87257
 30
0.0
 11
1868.493612
 21
757.87257
 31
0.0
 12
95.429847
 22
0.0
 32
0.0
 70
    32
  3
STANDARD_WS
100
AcDbAlignedDimension
 13
1876.389366
 23
697.87257
 33
0.0
 14
1876.389366
 24
817.87257
 34
0.0
 50
90.0
100
AcDbRotatedDimension
  0
MTEXT
  5
8A5
100
AcDbEntity
  8
0
100
AcDbMText
 10
1477.374699
 20
1700.553212
 30
0.0
 40
30.0
 41
0.0
 71
     1
 72
     5
  1
\fMS UI Gothic|b0|i0|c128|p50;油槽寸法
  0
MTEXT
  5
8A7
100
AcDbEntity
  8
0
100
AcDbMText
 10
1474.580573
 20
1601.904346
 30
0.0
 40
30.0
 41
0.0
 71
     1
 72
     5
  1
\fMS UI Gothic|b0|i0|c128|p50;制御範囲
  0
MTEXT
  5
8A8
100
AcDbEntity
  8
0
100
AcDbMText
 10
1474.580573
 20
1546.99601
 30
0.0
 40
30.0
 41
0.0
 71
     1
 72
     5
  1
\fMS UI Gothic|b0|i0|c128|p50;制御方法
  0
MTEXT
  5
8A9
100
AcDbEntity
  8
0
100
AcDbMText
 10
1474.580573
 20
1499.532875
 30
0.0
 40
30.0
 41
0.0
 71
     1
 72
     5
  1
\fMS UI Gothic|b0|i0|c128|p50;電源容量
  0
MTEXT
  5
8AD
100
AcDbEntity
  8
0
100
AcDbMText
 10
1479.237449
 20
1802.924683
 30
0.0
 40
30.0
 41
1.533
 71
     1
 72
     5
  1
\fMS UI Gothic|b0|i0|c128|p50;型　　　式
  0
MTEXT
  5
8AE
100
AcDbEntity
  8
0
100
AcDbMText
 10
1479.237449
 20
1748.016353
 30
0.0
 40
30.0
 41
0.0
 71
     1
 72
     5
  1
\fMS UI Gothic|b0|i0|c128|p50;寸　　　法
  0
MTEXT
  5
8AF
100
AcDbEntity
  8
0
100
AcDbMText
 10
1477.374699
 20
1649.36748
 30
0.0
 40
30.0
 41
0.0
 71
     1
 72
     5
  1
\fMS UI Gothic|b0|i0|c128|p50;油　　　量
  0
MTEXT
  5
8B0
100
AcDbEntity
  8
0
100
AcDbMText
 10
1474.580573
 20
1449.277789
 30
0.0
 40
30.0
 41
1.533
 71
     1
 72
     5
  1
\fMS UI Gothic|b0|i0|c128|p50;重　　　量
  0
LINE
  5
8B2
100
AcDbEntity
  8
0
100
AcDbLine
 10
1662.546431
 20
1805.25039
 30
0.0
 11
1662.546431
 21
1405.25039
 31
0.0
  0
MTEXT
  5
8B4
100
AcDbEntity
  8
0
100
AcDbMText
 10
1689.207514
 20
1797.340787
 30
0.0
 40
30.0
 41
1.6564
 71
     1
 72
     5
  1
\fMS UI Gothic|b0|i0|c128|p50;RE４０／６型
  0
MTEXT
  5
8B5
100
AcDbEntity
  8
0
100
AcDbMText
 10
1689.207514
 20
1742.432451
 30
0.0
 40
30.0
 41
0.0
 71
     1
 72
     5
  1
\fMS UI Gothic|b0|i0|c128|p50;W４８０×D６００×H８００
  0
MTEXT
  5
8B6
100
AcDbEntity
  8
0
100
AcDbMText
 10
1687.551129
 20
1696.830615
 30
0.0
 40
30.0
 41
1.6564
 71
     1
 72
     5
  1
\fMS UI Gothic|b0|i0|c128|p50;W３６０×D３７０　　深１２０
  0
MTEXT
  5
8B7
100
AcDbEntity
  8
0
100
AcDbMText
 10
1687.551129
 20
1644.71423
 30
0.0
 40
30.0
 41
0.0
 71
     1
 72
     5
  1
\fMS UI Gothic|b0|i0|c128|p50;２１L
  0
MTEXT
  5
8B8
100
AcDbEntity
  8
0
100
AcDbMText
 10
1687.551129
 20
1596.320443
 30
0.0
 40
30.0
 41
1.6564
 71
     1
 72
     5
  1
\fMS UI Gothic|b0|i0|c128|p50;６０\U+2103～２５０\U+2103
  0
MTEXT
  5
8B9
100
AcDbEntity
  8
0
100
AcDbMText
 10
1685.894752
 20
1549.787961
 30
0.0
 40
30.0
 41
265.020818
 71
     1
 72
     5
  1
\fMS UI Gothic|b0|i0|c128|p50;比例制御方式
  0
MTEXT
  5
8BA
100
AcDbEntity
  8
0
100
AcDbMText
 10
1687.551129
 20
1501.394174
 30
0.0
 40
30.0
 41
1.6564
 71
     1
 72
     5
  1
\fMS UI Gothic|b0|i0|c128|p50;三相２００V　　６Kw
  0
MTEXT
  5
8BB
100
AcDbEntity
  8
0
100
AcDbMText
 10
1685.894752
 20
1445.555191
 30
0.0
 40
30.0
 41
0.0
 71
     1
 72
     5
  1
\fMS UI Gothic|b0|i0|c128|p50;４０Kg
  0
LINE
  5
8BC
100
AcDbEntity
  8
0
100
AcDbLine
 10
2163.263294
 20
1805.25039
 30
0.0
 11
2163.263294
 21
1405.25039
 31
0.0
  0
LWPOLYLINE
  5
8BD
100
AcDbEntity
  8
0
100
AcDbPolyline
 90
        4
 70
     1
 43
0.0
 10
-473.980063
 20
2100.803126
 10
2716.199534
 20
2100.803126
 10
2716.199534
 20
-271.990411
 10
-473.980063
 20
-271.990411
  0
LWPOLYLINE
  5
8BE
100
AcDbEntity
  8
0
100
AcDbPolyline
 90
        4
 70
     1
 43
0.0
 10
1168.62734
 20
-124.782383
 10
2703.656705
 20
-124.782383
 10
2703.656705
 20
-256.146895
 10
1168.62734
 20
-256.146895
  0
MTEXT
  5
8C0
100
AcDbEntity
  8
0
100
AcDbMText
 10
1206.98377
 20
-159.840523
 30
0.0
 40
50.0
 41
0.0
 71
     1
 72
     5
  1
\fMS UI Gothic|b0|i0|c128|p50;ウォーターフライヤー株式会社
  0
LINE
  5
8C1
100
AcDbEntity
  8
0
100
AcDbLine
 10
2065.499509
 20
-124.800801
 30
0.0
 11
2065.499509
 21
-256.126581
 31
0.0
  0
LINE
  5
8C5
100
AcDbEntity
  8
0
100
AcDbLine
 10
2145.499509
 20
-124.800801
 30
0.0
 11
2145.499509
 21
-256.126581
 31
0.0
  0
MTEXT
  5
8C6
100
AcDbEntity
  8
0
100
AcDbMText
 10
2089.259136
 20
-161.867547
 30
0.0
 40
20.0
 41
12.192542
 71
     1
 72
     5
  1
\fMS UI Gothic|b0|i0|c128|p50;型式
  0
MTEXT
  5
8C7
100
AcDbEntity
  8
0
100
AcDbMText
 10
2228.595446
 20
-163.399296
 30
0.0
 40
50.0
 41
423.15674
 71
     1
 72
     5
  1
\fMS UI Gothic|b0|i0|c128|p50;RE４０／６型
  0
DIMENSION
  5
8E6
100
AcDbEntity
  8
0
  6
DASHED2
100
AcDbDimension
  2
*D18
 10
685.892646
 20
1045.681476
 30
0.0
 11
445.892646
 21
1057.785853
 31
0.0
 70
    32
  3
STANDARD_WS
100
AcDbAlignedDimension
 13
205.892646
 23
861.960693
 33
0.0
 14
685.892646
 24
861.960693
 34
0.0
100
AcDbRotatedDimension
  0
LINE
  5
908
100
AcDbEntity
  8
0
100
AcDbLine
 10
205.892646
 20
1242.293319
 30
0.0
 11
265.892646
 21
1372.293319
 31
0.0
  0
LINE
  5
909
100
AcDbEntity
  8
0
100
AcDbLine
 10
625.892646
 20
1372.293319
 30
0.0
 11
685.892646
 21
1242.293319
 31
0.0
  0
DIMENSION
  5
916
100
AcDbEntity
  8
0
  6
DASHED2
100
AcDbDimension
  2
*D19
 10
685.892646
 20
1936.682427
 30
0.0
 11
445.892646
 21
1948.786804
 31
0.0
 70
    32
  3
STANDARD_WS
100
AcDbAlignedDimension
 13
205.892646
 23
1861.244735
 33
0.0
 14
685.892646
 24
1861.244735
 34
0.0
100
AcDbRotatedDimension
  0
ENDSEC
  0
SECTION
  2
OBJECTS
  0
DICTIONARY
  5
C
100
AcDbDictionary
  3
ACAD_GROUP
350
D
  3
ACAD_MLINESTYLE
350
1B
  3
ACDBVARIABLEDICTIONARY
350
33
  3
CONTENTDICTIONARY
350
23
  0
DICTIONARY
  5
D
102
{ACAD_REACTORS
330
C
102
}
100
AcDbDictionary
  0
DICTIONARY
  5
1B
102
{ACAD_REACTORS
330
C
102
}
100
AcDbDictionary
  3
STANDARD
350
1C
  0
DICTIONARY
  5
33
102
{ACAD_REACTORS
330
C
102
}
100
AcDbDictionary
  3
DIMADEC
350
34
  0
DICTIONARY
  5
23
102
{ACAD_REACTORS
330
C
102
}
100
AcDbDictionary
  0
MLINESTYLE
  5
1C
102
{ACAD_REACTORS
330
1B
102
}
100
AcDbMlineStyle
  2
STANDARD
 70
     0
  3

 62
   256
 51
90.0
 52
90.0
 71
     2
 49
0.5
 62
   256
  6
BYLAYER
 49
-0.5
 62
   256
  6
BYLAYER
  0
DICTIONARYVAR
  5
34
102
{ACAD_REACTORS
330
33
102
}
100
DictionaryVariables
280
     0
  1
0
  0
ENDSEC
  0
EOF
